1 сезон

1 сезон

iTunes

1

КиноПоиск HD

Кинопоиск HD

iTunes

13

1 сезон

RePack

30

Ultimate

ВАЖНО

ИГРА 18+

pack

RePack

MK11
pack

Легкие деньги

RePack

jed

RePack

fifa19

RePack

RDR2

RePack

NEED FOR SPEED™ PAYBACK

4 сезон

9 сезон

Бесстыжие 9 сезон

Все сериалы

все сериалы на PB.wtf

RePack

FAR CRY 5
  
Magnet ссылка

Столетний старик, который вылез в окно и исчез / Hundraåringen som klev ut genom fönstret och försvann (Феликс Хернгрен) [2013, комедия, приключения, BDRip 720p] AVO piratbit.pw

Столетний старик, который вылез в окно и исчез через торрент piratbit.pw

Размер: 4.65 GB | Добавлен: 6 лет 2 мес. назад | Торрент скачан:314 раз
Скачать  

21-02-2015 13:55 Столетний старик, который вылез в окно и исчез Скачать торрент  

Столетний старик, который вылез в окно и исчез / Hundraåringen som klev ut genom fönstret och försvann

Год выпуска: 2013
Страна: Швеция
Жанр: комедия, приключения
Продолжительность: 01:54:17
Перевод: одноголосый закадровый
Субтитры: русские

Режиссёр: Феликс Хернгрен

В ролях: Роберт Густафссон, Ивар Викландер, Давид Виберг, Миа Скярингер, Йенс Хультен, Бианка Крузейро, Алан Форд, Свен Лённ, Дэвид Шеклтон, Георг Николофф

Описание: В день празднования своего столетия юбиляр вылезает через окно дома престарелых на газон и уходит. Уходит не куда-то, а от чего-то. От бессмысленного доживания в богадельне. В первый же час он ухитряется поссориться с бандитами и уехать в неизвестном направлении. Вскоре становится понятно, что все сто лет его жизни — сплошные приключения. Он вроде бы всегда плывёт по течению, но почему-то всегда приплывает к любимым занятиям — застольям и разного рода взрывам. Перезнакомившись при разных юмористических обстоятельствах, с большинством сильных своего времени — Франко, Труменом, Сталиным и изрядно повлияв на историю двадцатого века, он остается самим собой...



Качество: BDRip 720p
Формат: MKV
Видео кодек: H.264
Аудио кодек: AC3
Видео: 4812 Кбит/с, 1280х536, 24 кадра/с, 0.292 bpp
Аудио 1: русский, AC3, 448 kbps, 6 ch, 48 kHz [одноголосый закадровый, Алексей матвеев - Doctor Joker, перевод - Ольга Никитина]
Аудио 2: шведский, AC3, 448 kbps, 6 ch, 48 kHz [оригинал]

Имеются неименованные главы/чаптеры.
Европейская киноакадемия, 2014 год
Номинации (1):
Приз зрительских симпатий
Общее
Уникальный идентификатор : 190873670441968518410897171309825852812 (0x8F98EE8729D0406F9417982A06BF858C)
Полное имя : D:VideoStoletnij starik.2013.BDRip.720p.mkv
Формат : Matroska
Версия формата : Version 4 / Version 2
Размер файла : 4,65 Гбайт
Продолжительность : 1 ч. 54 м.
Общий поток : 5823 Кбит/сек
Дата кодирования : UTC 2015-02-21 12:33:39
Программа кодирования : mkvmerge v7.6.0 ('Garden of Dreams') 64bit built on Feb 8 2015 13:04:34
Библиотека кодирования : libebml v1.3.1 + libmatroska v1.4.2
DURATION : 01:48:33.499000000
NUMBER_OF_FRAMES : 1106
NUMBER_OF_BYTES : 76799
_STATISTICS_WRITING_APP : mkvmerge v7.6.0 ('Garden of Dreams') 64bit built on Feb 8 2015 13:04:34
_STATISTICS_WRITING_DATE_UTC : 2015-02-21 12:33:39
_STATISTICS_TAGS : BPS DURATION NUMBER_OF_FRAMES NUMBER_OF_BYTES

Видео
Идентификатор : 1
Формат : AVC
Формат/Информация : Advanced Video Codec
Профиль формата : High@L4.1
Параметр CABAC формата : Да
Параметр ReFrames формата : 9 кадров
Идентификатор кодека : V_MPEG4/ISO/AVC
Продолжительность : 1 ч. 54 м.
Битрейт : 4812 Кбит/сек
Ширина : 1280 пикселей
Высота : 536 пикселей
Соотношение сторон : 2,40:1
Режим частоты кадров : Постоянный
Частота кадров : 24,000 кадра/сек
Цветовое пространство : YUV
Субдискретизация насыщенности : 4:2:0
Битовая глубина : 8 бит
Тип развёртки : Прогрессивная
Бит/(Пиксели*Кадры) : 0.292
Размер потока : 3,84 Гбайт (83%)
Заголовок : BDRip -- STarankov
Библиотека кодирования : x264 core 142 r2431 ac76440
Настройки программы : cabac=1 / ref=9 / deblock=1:-1:-1 / analyse=0x3:0x113 / me=umh / subme=10 / psy=1 / psy_rd=1.00:0.15 / mixed_ref=1 / me_range=32 / chroma_me=1 / trellis=2 / 8x8dct=1 / cqm=0 / deadzone=21,11 / fast_pskip=1 / chroma_qp_offset=-3 / threads=6 / lookahead_threads=1 / sliced_threads=0 / nr=0 / decimate=1 / interlaced=0 / bluray_compat=0 / constrained_intra=0 / bframes=8 / b_pyramid=2 / b_adapt=2 / b_bias=0 / direct=3 / weightb=1 / open_gop=0 / weightp=2 / keyint=230 / keyint_min=23 / scenecut=40 / intra_refresh=0 / rc_lookahead=40 / rc=crf / mbtree=0 / crf=17.0 / qcomp=0.60 / qpmin=0 / qpmax=69 / qpstep=4 / vbv_maxrate=40000 / vbv_bufsize=50000 / crf_max=0.0 / nal_hrd=none / filler=0 / ip_ratio=1.40 / pb_ratio=1.30 / aq=1:1.00
Язык : Swedish
Default : Да
Forced : Нет
DURATION : 01:54:17.125000000
NUMBER_OF_FRAMES : 164571
NUMBER_OF_BYTES : 4222881305
_STATISTICS_WRITING_APP : mkvmerge v7.6.0 ('Garden of Dreams') 64bit built on Feb 8 2015 13:04:34
_STATISTICS_WRITING_DATE_UTC : 2015-02-21 12:33:39
_STATISTICS_TAGS : BPS DURATION NUMBER_OF_FRAMES NUMBER_OF_BYTES

Аудио #1
Идентификатор : 2
Формат : AC-3
Формат/Информация : Audio Coding 3
Расширение режима : CM (complete main)
Параметр Endianness формата : Big
Идентификатор кодека : A_AC3
Продолжительность : 1 ч. 54 м.
Вид битрейта : Постоянный
Битрейт : 448 Кбит/сек
Каналы : 6 каналов
Расположение каналов : Front: L C R, Side: L R, LFE
Частота : 48,0 КГц
Битовая глубина : 16 бит
Метод сжатия : С потерями
Размер потока : 366 Мбайт (8%)
Заголовок : AVO (Алексей матвеев - Doctor Joker)
Язык : Russian
Default : Да
Forced : Нет

Аудио #2
Идентификатор : 3
Формат : AC-3
Формат/Информация : Audio Coding 3
Расширение режима : CM (complete main)
Параметр Endianness формата : Big
Идентификатор кодека : A_AC3
Продолжительность : 1 ч. 54 м.
Вид битрейта : Постоянный
Битрейт : 448 Кбит/сек
Каналы : 6 каналов
Расположение каналов : Front: L C R, Side: L R, LFE
Частота : 48,0 КГц
Битовая глубина : 16 бит
Метод сжатия : С потерями
Размер потока : 366 Мбайт (8%)
Заголовок : Original
Язык : Swedish
Default : Нет
Forced : Нет

Текст
Идентификатор : 4
Формат : UTF-8
Идентификатор кодека : S_TEXT/UTF8
Идентификатор кодека/Информация : UTF-8 Plain Text
Заголовок : русский
Язык : Russian
Default : Нет
Forced : Нет

Меню
00:00:00.000 : :Chapter 01
00:15:04.916 : :Chapter 02
00:30:15.750 : :Chapter 03
00:44:48.583 : :Chapter 04
00:58:23.083 : :Chapter 05
01:14:06.291 : :Chapter 06
01:31:16.582 : :Chapter 07
01:48:33.750 : :Chapter 08
01:54:06.500 : :Chapter 09
piratbit.pw



Скачать Столетний старик, который вылез в окно и исчез через торрент http://i68.fastpic.ru/big/2015/0221/ef/cbc96db70c94f4f6f6630e69137facef.jpg Скачать фильм Столетний старик, который вылез в окно и исчез через торрент бесплантно в хорошем качестве Описание: В день празднования своего столетия юбиляр вылезает через окно дома престарелых на газон и уходит. Уходит не куда-то, а от ... 9.8 10 6
Торрент: Зарегистрирован [2015-02-21 13:55] · скачан: 314 раз
Статус: √ проверено
Размер: 4.65 GB
Как cкачать? Как скачать Столетний старик, который вылез в окно и исчез через торрент | UTorrent

% Раздел Тема Автор DL S | L
Фильмы с авторской озвучкой [ 12.02 GB ] Столетний старик который вылез в окно и исчез / Hundraåringen som klev ut genom fönstret och försvann [2013 BDRip 1080p] AVO msltel Скачать
1 | 0


Последний раз редактировалось: msltel (2015-02-23 16:39), всего редактировалось 1 раз

28-11-2019 20:33  

Отключить всю рекламу на сайте

21-02-2015 21:51 Столетний старик, который вылез в окно и исчез Скачать торрент  

фильм - супер!!!piratbit.pw



23-02-2015 19:05 Столетний старик, который вылез в окно и исчез Скачать торрент  

.....piratbit.pw



    Дорогой пользователь! Огромная просьба, поблагодарите релизера, оцените раздачу и оставьте свои комментарий, если Вы скачали Столетний старик, который вылез в окно и исчез через торрент бесплатно! Внесите свою лепту в развитие PiratBit!
    Комментировать посты могут только пользователи прошедшие не сложную регистрацию
    Показать сообщения:    

    Столетний старик, который вылез в окно и исчез через торрент
    Скачать бесплатно Столетний старик, который вылез в окно и исчез
    Столетний старик, который вылез в окно и исчез скачать торрент
    Столетний старик, который вылез в окно и исчез смотреть онлайн
    Cкачать фильм Столетний старик, который вылез в окно и исчез бесплатно
    Столетний старик, который вылез в окно и исчез скачать торрент в хорошем качестве
    Столетний старик, который вылез в окно и исчез смотреть онлайн бесплатно в хорошем качестве


    Вы не можете начинать темы
    Вы не можете отвечать на сообщения
    Вы не можете редактировать свои сообщения
    Вы не можете удалять свои сообщения
    Вы не можете голосовать в опросах
    Вы не можете прикреплять файлы к сообщениям
    Вы можете скачивать файлы