1 сезон

3 сезон

iTunes

1

iTunes

DUB Netflix

iTunes

13

1 сезон

RePack

30

Deluxe

pack

Легкие деньги

ВАЖНО

ИГРА 18+

pack

RePack

MK11

RePack

jed

RePack

fifa19

RePack

RDR2

RePack

NEED FOR SPEED™ PAYBACK

4 сезон

9 сезон

Бесстыжие 9 сезон

Все сериалы

все сериалы на PB.wtf

RePack

FAR CRY 5

Anonymous, доброй ночи, мы не успеваем до 1 числа собрать деньги на оплату серверов, помогите нам пожалуйста в это трудное время. В качестве благодарности мы отключим Вам всю рекламу на сайте (укажите свой ник в строку Ваше имя)!

×
  
Magnet ссылка

Поля живых мертвецов / Fields of the Dead (Daniel B. Iske) [2014, США, ужасы, HDRip, Любительский (одноголосый) [Xixidok] + ENG piratbit.pw

Поля живых мертвецов через торрент piratbit.pw

Размер: 1.37 GB | Добавлен: 6 лет 4 мес. назад | Торрент скачан:292 раза
Скачать  

20-02-2015 03:54 Поля живых мертвецов Скачать торрент  

Поля живых мертвецов / Fields of the Dead


  • Год выпуска: 2014
  • Страна: США
  • Жанр: ужасы
  • Продолжительность: 01:24:28
  • Перевод: Любительский (одноголосый) [Xixidok]

  • Режиссер: Daniel B. Iske
  • В ролях:

    Лара Эдкинс (Emma Cartwright), Марк Букер (Trent), Майк Деландж (Raliegh Cartwright), Chelsie Hartness (Linda), Мэтт Харвэлл (Alex), Jessica Hotovy (Shelly), Элиот Ирвин (Jack Cartwright), Daniel B. Iske (Tom), Wendy Iske (Robin), Мелани Гиллис (Cheryl), Ник Санчез (Frank), Мишель Шраг (Randy)

  • Описание:
    Семеро студентов отправляются писать дипломную работу о больной кукурузе, на заброшенную ферму. Там, посреди поля, где кукурузные початки, бросают свои зерна, полные отчаяния и страдания, студенты находят старый дневник молодой женщины, вызывающий проклятие. И с каждым, изученным кукурузным образцом, студентом становится меньше.
  • Рейтинг:



  • Качество: HDRip
  • Формат: :AVI
  • Видео кодек: XviD
  • Аудио кодек: AC3
  • Видео: 720x400 (16:9), 1831 kbps, 23,976 fps, 0,265 bpp
  • Аудио №1: 2.0 / 44 kHz / 192 kbps / 16 bit
  • Аудио №2: 2.0 / 48 kHz / 192 kbps / 16 bit
  • Релиз от: GEKADOL

    Код:

    General
    Complete name                            : D:\Фильмы\Fields.of.the.Dead.2014.L1.HDRip.1400MB.avi
    Format                                   : AVI
    Format/Info                              : Audio Video Interleave
    File size                                : 1.37 GiB
    Duration                                 : 1h 24mn
    Overall bit rate                         : 2 318 Kbps
    Writing application                      : VirtualDubMod 1.5.10.3 | www.virtualdub-fr.org || (build 2550/release)
    Writing library                          : VirtualDubMod build 2550/release

    Video
    ID                                       : 0
    Format                                   : MPEG-4 Visual
    Format profile                           : Advanced Simple@L5
    Format settings, BVOP                    : 1
    Format settings, QPel                    : No
    Format settings, GMC                     : No warppoints
    Format settings, Matrix                  : Custom
    Codec ID                                 : XVID
    Codec ID/Hint                            : XviD
    Duration                                 : 1h 24mn
    Bit rate                                 : 1 831 Kbps
    Width                                    : 720 pixels
    Height                                   : 400 pixels
    Display aspect ratio                     : 16:9
    Frame rate                               : 23.976 fps
    Color space                              : YUV
    Chroma subsampling                       : 4:2:0
    Bit depth                                : 8 bits
    Scan type                                : Progressive
    Compression mode                         : Lossy
    Bits/(Pixel*Frame)                       : 0.265
    Stream size                              : 1.08 GiB (79%)
    Writing library                          : XviD 73

    Audio #1
    ID                                       : 1
    Format                                   : AC-3
    Format/Info                              : Audio Coding 3
    Mode extension                           : CM (complete main)
    Codec ID                                 : 2000
    Duration                                 : 1h 24mn
    Bit rate mode                            : Constant
    Bit rate                                 : 192 Kbps
    Channel(s)                               : 2 channels
    Channel positions                        : Front: L R
    Sampling rate                            : 44.1 KHz
    Bit depth                                : 16 bits
    Compression mode                         : Lossy
    Delay relative to video                  : 29ms
    Stream size                              : 116 MiB (8%)
    Alignment                                : Split accross interleaves

    Audio #2
    ID                                       : 2
    Format                                   : AC-3
    Format/Info                              : Audio Coding 3
    Mode extension                           : CM (complete main)
    Codec ID                                 : 2000
    Duration                                 : 1h 24mn
    Bit rate mode                            : Constant
    Bit rate                                 : 192 Kbps
    Channel(s)                               : 2 channels
    Channel positions                        : Front: L R
    Sampling rate                            : 48.0 KHz
    Bit depth                                : 16 bits
    Compression mode                         : Lossy
    Stream size                              : 116 MiB (8%)
    Alignment                                : Split accross interleaves




    Скриншоты:
    скриншот   скриншот   скриншот   скриншот   скриншот  
    скриншот  


    piratbit.pw



  • Скачать Поля живых мертвецов через торрент http://i57.fastpic.ru/big/2015/0220/cf/68ac0f6d4994cb4edf99754ce2f948cf.jpg Скачать фильм Поля живых мертвецов через торрент бесплантно в хорошем качестве Описание: Семеро студентов отправляются писать дипломную работу о больной кукурузе, на заброшенную ферму. Там, посреди поля, где кукурузные ... 8.5 10 6
    Торрент: Зарегистрирован [2015-02-20 03:54] · скачан: 292 раз
    Статус: √ проверено
    Размер: 1.37 GB
    Как cкачать? Как скачать Поля живых мертвецов через торрент | UTorrent



    Последний раз редактировалось: GEKADOL (2015-02-20 04:40), всего редактировалось 1 раз

    28-11-2019 20:33  

    Отключить всю рекламу на сайте

    20-02-2015 04:22 Поля живых мертвецов Скачать торрент  

    Попытка раскрыть тему си*ек на втором скрине получилось не очень. Темновато!piratbit.pw



    20-02-2015 05:36 Поля живых мертвецов Скачать торрент  

    Короче тема сисег не раскрыта piratbit.pw



    20-02-2015 05:52 Поля живых мертвецов Скачать торрент  

    Да все нормально)) с ними)piratbit.pw



    20-02-2015 06:05 Поля живых мертвецов Скачать торрент  

    Может и мне какое-нить подобное УГ снять?...А что..Фильмов таких с копеечным бюджетом и сценарием под копирку уже море...piratbit.pw



    20-02-2015 06:30 Поля живых мертвецов Скачать торрент  

    Till писал(а):

    Может и мне какое-нить подобное УГ снять?...А что..Фильмов таких с копеечным бюджетом и сценарием под копирку уже море...

    А что,я думаю стоит попробовать...
    Автор,ладно она во втором скрине отвернулась от нас сиськами,а в фильме хоть повернётся к нам сисисьгами своими? sarcasticpiratbit.pw



    20-02-2015 10:04 Поля живых мертвецов Скачать торрент  

    "Семеро студентов отправляются писать дипломную работу о больной кукурузе" теперь я знаю о фильмах ужасов всё! sarcastic sarcastic sarcasticpiratbit.pw



    20-02-2015 18:32 Поля живых мертвецов Скачать торрент  

    Ну че вы начинаете второй скрин не плохой же )))piratbit.pw



    15-03-2015 10:31 Поля живых мертвецов Скачать торрент  

    Перевод Xixidok когда он бросит переводить неужели людям нравится как он говорит,только иза него не буду качать.piratbit.pw



      Дорогой пользователь! Огромная просьба, поблагодарите релизера, оцените раздачу и оставьте свои комментарий, если Вы скачали Поля живых мертвецов через торрент бесплатно! Внесите свою лепту в развитие PiratBit!
      Комментировать посты могут только пользователи прошедшие не сложную регистрацию
      Показать сообщения:    

      Поля живых мертвецов через торрент
      Скачать бесплатно Поля живых мертвецов
      Поля живых мертвецов скачать торрент
      Поля живых мертвецов смотреть онлайн
      Cкачать фильм Поля живых мертвецов бесплатно
      Поля живых мертвецов скачать торрент в хорошем качестве
      Поля живых мертвецов смотреть онлайн бесплатно в хорошем качестве


      Вы не можете начинать темы
      Вы не можете отвечать на сообщения
      Вы не можете редактировать свои сообщения
      Вы не можете удалять свои сообщения
      Вы не можете голосовать в опросах
      Вы не можете прикреплять файлы к сообщениям
      Вы можете скачивать файлы