1 сезон

3 сезон

iTunes

1

iTunes

DUB Netflix

iTunes

13

1 сезон

RePack

30

Deluxe

pack

Легкие деньги

ВАЖНО

ИГРА 18+

pack

RePack

MK11

RePack

jed

RePack

fifa19

RePack

RDR2

RePack

NEED FOR SPEED™ PAYBACK

4 сезон

9 сезон

Бесстыжие 9 сезон

Все сериалы

все сериалы на PB.wtf

RePack

FAR CRY 5

Anonymous, доброй ночи, мы не успеваем до 1 числа собрать деньги на оплату серверов, помогите нам пожалуйста в это трудное время. В качестве благодарности мы отключим Вам всю рекламу на сайте (укажите свой ник в строку Ваше имя)!

×
  
Magnet ссылка

71 / '71 (Ян Деманж) [2014 г., боевик, триллер, драма, военный, HDRip, Любительский одноголосый "datynet"] piratbit.pw

71 через торрент piratbit.pw

Размер: 1.45 GB | Добавлен: 6 лет 4 мес. назад | Торрент скачан:121 раз
Скачать  

19-02-2015 18:22 71 Скачать торрент  

71 / '71
Год выпуска: 2014
Страна: Великобритания // Crab Apple Films, Protagonist Pictures, Warp Films See more
Жанр: боевик, триллер, драма, военный
Продолжительность: 01:38:58
Перевод: Любительский одноголосый (datynet)

Режиссер: Ян Деманж

IMDB 7.70 (2119)

В ролях: Джек О’Коннелл, Пол Андерсон, Шон Харрис, Сэм Рид, Чарли Мерфи, Сэм Хэзелдайн, Джек Лауден, Валин Кэйн, Киллиан Скотт, Барри Кеоган

Описание: 1971 год. Конфликт в Северной Ирландии перерастает в гражданскую войну. Новобранца Гари отправляют в зону военных действий в Белфасте. Город разделился на «лояльных» протестантов и «враждебных» католиков. Обе стороны имеют военизированные подразделения, кроме того, радикальные уличные банды и тайные агенты со всех сторон пытаются отстаивать свои интересы...

Качество: HDRip
Формат: AVI
Видео кодек: XviD
Аудио кодек: AC3
Видео: 720x304 (2.37:1), 25 fps, XviD build 50 ~1900 kbps avg, 0.35 bit/pixel
Аудио: 44.1 kHz, AC3 Dolby Digital, 2/0 (L,R) ch, ~192 kbps

скриншот   скриншот   скриншот   скриншот   скриншот  

Общее
Полное имя : F:\кино\'71.2014.HDRip.XviD.avi
Формат : AVI
Формат/Информация : Audio Video Interleave
Размер файла : 1,45 Гбайт
Продолжительность : 1 ч. 38 м.
Общий поток : 2103 Кбит/сек
Программа кодирования : VirtualDubMod 1.5.10.3 | www.virtualdub-fr.org || (build 2550/release)
Библиотека кодирования : VirtualDubMod build 2550/release

Видео
Идентификатор : 0
Формат : MPEG-4 Visual
Профиль формата : Advanced Simple@L5
Параметр BVOP формата : 2
Параметр QPel формата : Нет
Параметр GMC формата : Без точки перехода
Параметр матрицы формата : Default (H.263)
Идентификатор кодека : XVID
Идентификатор кодека/Подсказка : XviD
Продолжительность : 1 ч. 38 м.
Битрейт : 1901 Кбит/сек
Ширина : 720 пикселей
Высота : 304 пикселя
Соотношение сторон : 2,35:1
Частота кадров : 25,000 кадров/сек
Цветовое пространство : YUV
Субдискретизация насыщенности : 4:2:0
Битовая глубина : 8 бит
Тип развёртки : Прогрессивная
Метод сжатия : С потерями
Бит/(Пиксели*Кадры) : 0.347
Размер потока : 1,31 Гбайт (90%)
Библиотека кодирования : XviD 1.2.1 (UTC 2008-12-04)

Аудио
Идентификатор : 1
Формат : AC-3
Формат/Информация : Audio Coding 3
Расширение режима : CM (complete main)
Параметр Endianness формата : Big
Идентификатор кодека : 2000
Продолжительность : 1 ч. 38 м.
Вид битрейта : Постоянный
Битрейт : 192 Кбит/сек
Каналы : 2 канала
Расположение каналов : Front: L R
Частота : 44,1 КГц
Битовая глубина : 16 бит
Метод сжатия : С потерями
Размер потока : 136 Мбайт (9%)
Выравнивание : Разделение по промежуткам
Продолжительность промежутка : 40 мс. (1,00 видеокадр)
Время предзагрузки промежутка : 500 мс.


71 скачать торрент


piratbit.pw



Скачать 71 через торрент https://pic1.kartinco.top/images/9/52ciq.jpg Скачать фильм 71 через торрент бесплантно в хорошем качестве Описание: 1971 год. Конфликт в Северной Ирландии перерастает в гражданскую войну. Новобранца Гари отправляют в зону военных действий в ... 8.5 10 6
Торрент: Зарегистрирован [2015-02-19 18:22] · скачан: 121 раз
Статус: T временная
Размер: 1.45 GB
Как cкачать? Как скачать 71 через торрент | UTorrent

28-11-2019 20:33  

Отключить всю рекламу на сайте

19-02-2015 18:30 71 Скачать торрент  

Вот спасибо. Очень хотел посмотреть.piratbit.pw



    Дорогой пользователь! Огромная просьба, поблагодарите релизера, оцените раздачу и оставьте свои комментарий, если Вы скачали 71 через торрент бесплатно! Внесите свою лепту в развитие PiratBit!
    Комментировать посты могут только пользователи прошедшие не сложную регистрацию
    Показать сообщения:    

    71 через торрент
    Скачать бесплатно 71
    71 скачать торрент
    71 смотреть онлайн
    Cкачать фильм 71 бесплатно
    71 скачать торрент в хорошем качестве
    71 смотреть онлайн бесплатно в хорошем качестве


    Вы не можете начинать темы
    Вы не можете отвечать на сообщения
    Вы не можете редактировать свои сообщения
    Вы не можете удалять свои сообщения
    Вы не можете голосовать в опросах
    Вы не можете прикреплять файлы к сообщениям
    Вы можете скачивать файлы