1 сезон

3 сезон

iTunes

1

iTunes

DUB Netflix

iTunes

13

1 сезон

RePack

30

Deluxe

pack

Легкие деньги

ВАЖНО

ИГРА 18+

pack

RePack

MK11

RePack

jed

RePack

fifa19

RePack

RDR2

RePack

NEED FOR SPEED™ PAYBACK

4 сезон

9 сезон

Бесстыжие 9 сезон

Все сериалы

все сериалы на PB.wtf

RePack

FAR CRY 5

Anonymous, доброе утро, мы не успеваем до 1 числа собрать деньги на оплату серверов, помогите нам пожалуйста в это трудное время. В качестве благодарности мы отключим Вам всю рекламу на сайте (укажите свой ник в строку Ваше имя)!

×
  
Magnet ссылка

Будто призрак / Apparitional (Эндрю П. Джонс ) [2014, ужасы, триллер, WEBRip, Любительский (двухголосый) [den904, DeadSno] piratbit.pw

Будто призрак через торрент piratbit.pw

Размер: 1.36 GB | Добавлен: 6 лет 4 мес. назад | Торрент скачан:158 раз
Скачать  

19-02-2015 04:37 Будто призрак Скачать торрент  


Будто призрак / Apparitional


ИНФОРМАЦИЯ:
Год выпуска: 2014
Страна: США
Жанр: ужасы, триллер
Продолжительность: 01:21:57
Перевод: Любительский (двухголосый) [den904, DeadSno]
Режиссер: Эндрю П. Джонс

В Ролях:


Джеффри Джонсон (Joel), Линара Вашингтон (Kate), Чарли Кунц (Berger), John Zderko (Roger), Билл Литгоу (Mr. Gaffney), Ди Уоллес-Стоун (Ms. Simon), Питер Майер (Clive), Аманда Чизм (Story Producer), Ник ДеМаринис (Nicky), Энди Фриман (Prison Guard), Слоун Хоффманн (Intern Amy), Джей Шипман (Intern #1)

ОПИСАНИЕ:
Находящаяся в затруднительном положении в связи с отсутствием сенсационного матриала, съемочная группа шоу о паранормальных являниях, в отчаянии отправляется в 11й тюремный блок старой заброшенной тюрьмы, где, по убеждению бывшего ее работника да и всех жителей близлежащего городка, обитает страшный призрак психопата. Это последняя надежда охотников за призраками на крутой материал, поскольку их шоу стоит на грани закрытия. Некоторые члены шоу до конца не верят в возможность существования потусторонних сил, но те проявления, с которыми они столкнутся поставят их на грань выживания. Однако, призраки, как известно, жаждут возмездия и охотникам нужно будет не только выжить, но и разгадать загадку, от ответа на которую зависят их жизни.

  • Мировая премьера:1 июля 2014

    ТЕХ.ДАННЫЕ:
    Качество: WEBRip
    Формат: AVI ✦ Видео кодек: XviD ✦ Аудио кодек: AC3
    Видео: 720x400 (16:9)| 25 fps, 2112 Kbps
    Аудио: 2.0 | 48 kHz | 256 kbps |


    Код:

    General
    Complete name                            : D:\Торенты\Apparitional (2014) WEBRip  L2.avi
    Format                                   : AVI
    Format/Info                              : Audio Video Interleave
    Format profile                           : OpenDML
    Format settings                          : rec
    File size                                : 1.36 GiB
    Duration                                 : 1h 21mn
    Overall bit rate                         : 2 374 Kbps
    Writing application                      : AVI-Mux GUI 1.17.8.3, Feb 16 201019:42:50

    Video
    ID                                       : 0
    Format                                   : MPEG-4 Visual
    Codec ID                                 : XVID
    Codec ID/Hint                            : XviD
    Duration                                 : 1h 21mn
    Source duration                          : 31s 520ms
    Bit rate                                 : , 2112 Kbps bps
    Width                                    : 720 pixels
    Height                                   : 400 pixels
    Display aspect ratio                     : 16:9
    Frame rate                               : 25.000 fps
    Color space                              : YUV
    Chroma subsampling                       : 4:2:0
    Compression mode                         : Lossy
    Bits/(Pixel*Frame)                       : 0.000
    Stream size                              : 123 KiB (0%)

    Audio
    ID                                       : 1
    Format                                   : AC-3
    Format/Info                              : Audio Coding 3
    Codec ID                                 : 2000
    Duration                                 : 1h 21mn
    Source duration                          : 31s 744ms
    Bit rate mode                            : Constant
    Bit rate                                 : 256 Kbps
    Channel(s)                               : 2 channels
    Sampling rate                            : 48.0 KHz
    Compression mode                         : Lossy
    Stream size                              : 992 KiB (0%)
    Alignment                                : Aligned on interleaves
    Interleave, duration                     : 64 ms (1.59 video frames)
    Interleave, preload duration             : 192 ms
    Title                                    : rus

    Скриншоты:


    © Оформление by Ворон
    piratbit.pw



  • Скачать Будто призрак через торрент https://pic1.kartinco.top/images/61/ordi9.jpg Скачать фильм Будто призрак через торрент бесплантно в хорошем качестве Е:Находящаяся в затруднительном положении в связи с отсутствием сенсационного матриала, съемочная группа шоу о паранормальных являниях, в ... 8.2 10 5
    Торрент: Зарегистрирован [2015-02-19 04:37] · скачан: 158 раз
    Статус: √ проверено
    Размер: 1.36 GB
    Как cкачать? Как скачать Будто призрак через торрент | UTorrent

    % Раздел Тема Автор DL S | L
    T Фильмы 2014 (Звук TS, Cam, VO, DVO) [ 652 MB ] Будто призрак / Apparitional [2014 WEBRip-AVC ] DVO Ворон Скачать
    1 | 0

    28-11-2019 20:33  

    Отключить всю рекламу на сайте

      Дорогой пользователь! Огромная просьба, поблагодарите релизера, оцените раздачу и оставьте свои комментарий, если Вы скачали Будто призрак через торрент бесплатно! Внесите свою лепту в развитие PiratBit!
      Комментировать посты могут только пользователи прошедшие не сложную регистрацию
      Показать сообщения:    

      Будто призрак через торрент
      Скачать бесплатно Будто призрак
      Будто призрак скачать торрент
      Будто призрак смотреть онлайн
      Cкачать фильм Будто призрак бесплатно
      Будто призрак скачать торрент в хорошем качестве
      Будто призрак смотреть онлайн бесплатно в хорошем качестве


      Вы не можете начинать темы
      Вы не можете отвечать на сообщения
      Вы не можете редактировать свои сообщения
      Вы не можете удалять свои сообщения
      Вы не можете голосовать в опросах
      Вы не можете прикреплять файлы к сообщениям
      Вы можете скачивать файлы