1 сезон

3 сезон

iTunes

1

iTunes

DUB Netflix

iTunes

13

1 сезон

RePack

30

Deluxe

pack

Легкие деньги

ВАЖНО

ИГРА 18+

pack

RePack

MK11

RePack

jed

RePack

fifa19

RePack

RDR2

RePack

NEED FOR SPEED™ PAYBACK

4 сезон

9 сезон

Бесстыжие 9 сезон

Все сериалы

все сериалы на PB.wtf

RePack

FAR CRY 5

Anonymous, добрый вечер, мы не успеваем до 1 числа собрать деньги на оплату серверов, помогите нам пожалуйста в это трудное время. В качестве благодарности мы отключим Вам всю рекламу на сайте (укажите свой ник в строку Ваше имя)!

×
  
Magnet ссылка

Кристи / Kristy (Оливер Блэкберн ) [2014, ужасы, триллер, HDRip, Любительский (двухголосый) [den904, DeadSno] piratbit.pw

Кристи через торрент piratbit.pw

Размер: 1.44 GB | Добавлен: 6 лет 3 мес. назад | Торрент скачан:197 раз
Скачать  

18-02-2015 14:28 Кристи Скачать торрент  


Кристи / Kristy


ИНФОРМАЦИЯ:
Год выпуска: 2014
Страна: США
Жанр: ужасы, триллер
Продолжительность: 01:25:26
Перевод: Любительский (двухголосый) [den904, DeadSno]
Режиссер: Оливер Блэкберн

В Ролях:


Хейли Беннетт (Justine), Эшли Грин (Violet), Лукас Тилл (Aaron), Крис Кой (Blue Hoodie), Майкл Сил (Black Hoodie), Каран Хэнсон (Grey Hoodie), Эрика Эш (Nicole), Джеймс Рэнсон (Scott), Мэтью Ст. Патрик (Wayne), Аль Висенте (Dave), Анна Скиданова (Student), Дэйн Родс (Cook)

ОПИСАНИЕ:
Оставшись в одиночестве в кампусе на время празднования Дня Благодарения, студентка вынуждена сражаться с бандой бродяг. Ей предстоит побороть страхи, проявить все свои хитрость и смекалку, чтобы отразить нападение.

  • Мировая премьера:7 августа 2014

    ТЕХ.ДАННЫЕ:
    Качество: HDRip
    Формат: AVI ✦ Видео кодек: XviD ✦ Аудио кодек: AC3
    Видео: 720x304 (2.35:1)| 1604 kbps| 23,976 fps| 0,306 bpp
    Аудио №1: 5.1 | 48 kHz | 448 kbps | 16 bit | [den904, DeadSno]
    Аудио №2: 5.1 | 48 kHz | 256 kbps | 16 bit | немецкий


    Код:

    General
    Complete name                            : D:\Торенты\Kristy.2014.L2.HDRip.1490MB.avi
    Format                                   : AVI
    Format/Info                              : Audio Video Interleave
    File size                                : 1.44 GiB
    Duration                                 : 1h 25mn
    Overall bit rate                         : 2 415 Kbps
    Writing application                      : VirtualDubMod 1.5.10.2 (build 2540/release)
    Writing library                          : VirtualDubMod build 2540/release

    Video
    ID                                       : 0
    Format                                   : MPEG-4 Visual
    Format profile                           : Advanced Simple@L5
    Format settings, BVOP                    : 1
    Format settings, QPel                    : No
    Format settings, GMC                     : No warppoints
    Format settings, Matrix                  : Default (H.263)
    Codec ID                                 : XVID
    Codec ID/Hint                            : XviD
    Duration                                 : 1h 25mn
    Bit rate                                 : 1604 Kbps
    Width                                    : 720 pixels
    Height                                   : 304 pixels
    Display aspect ratio                     : 2.35:1
    Frame rate                               : 23.976 fps
    Color space                              : YUV
    Chroma subsampling                       : 4:2:0
    Bit depth                                : 8 bits
    Scan type                                : Progressive
    Compression mode                         : Lossy
    Bits/(Pixel*Frame)                       : 0.306
    Stream size                              : 980 MiB (66%)
    Writing library                          : XviD 73

    Audio #1
    ID                                       : 1
    Format                                   : AC-3
    Format/Info                              : Audio Coding 3
    Mode extension                           : CM (complete main)
    Codec ID                                 : 2000
    Duration                                 : 1h 25mn
    Bit rate mode                            : Constant
    Bit rate                                 : 448 Kbps
    Channel(s)                               : 6 channels
    Channel positions                        : Front: L C R, Side: L R, LFE
    Sampling rate                            : 48.0 KHz
    Bit depth                                : 16 bits
    Compression mode                         : Lossy
    Stream size                              : 274 MiB (19%)
    Alignment                                : Split accross interleaves

    Audio #2
    ID                                       : 2
    Format                                   : AC-3
    Format/Info                              : Audio Coding 3
    Mode extension                           : CM (complete main)
    Codec ID                                 : 2000
    Duration                                 : 1h 25mn
    Bit rate mode                            : Constant
    Bit rate                                 : 256 Kbps
    Channel(s)                               : 6 channels
    Channel positions                        : Front: L C R, Side: L R, LFE
    Sampling rate                            : 48.0 KHz
    Bit depth                                : 16 bits
    Compression mode                         : Lossy
    Stream size                              : 156 MiB (11%)
    Alignment                                : Split accross interleaves

    Скриншоты:


    © Оформление by Ворон
    piratbit.pw



  • Скачать Кристи через торрент https://pic1.kartinco.top/images/61/ordi9.jpg Скачать фильм Кристи через торрент бесплантно в хорошем качестве Е:Оставшись в одиночестве в кампусе на время празднования Дня Благодарения, студентка вынуждена сражаться с бандой бродяг. Ей предстоит ... 8 10 7
    Торрент: Зарегистрирован [2015-02-18 14:28] · скачан: 197 раз
    Статус: √ проверено
    Размер: 1.44 GB
    Как cкачать? Как скачать Кристи через торрент | UTorrent

    % Раздел Тема Автор DL S | L
    T Фильмы [HD 720p, 1080p] (Звук Cam, VO, DVO) [ 5.27 GB ] Кристи / Kristy [2014 BDRip 1080p Любительский [den904 DeadSno] Ворон Скачать
    1 | 0
    Фильмы 2014 (Звук TS, Cam, VO, DVO) [ 1.19 GB ] Кристи / Случайные / Kristy / Random [2014 HDRip Любительский [Xixidok]+ENG GEKADOL Скачать
    1 | 0
    Домашнее порно [ 189 MB ] Кристину трахнули в туалете / Kristyna [2013 doggy handjob amateur pov SATRip] sheker187 Скачать
    2 | 0

    28-11-2019 20:33  

    Отключить всю рекламу на сайте


    22-02-2015 20:08 Кристи Скачать торрент  

    Достойный триллерpiratbit.pw



      Дорогой пользователь! Огромная просьба, поблагодарите релизера, оцените раздачу и оставьте свои комментарий, если Вы скачали Кристи через торрент бесплатно! Внесите свою лепту в развитие PiratBit!
      Комментировать посты могут только пользователи прошедшие не сложную регистрацию
      Показать сообщения:    

      Кристи через торрент
      Скачать бесплатно Кристи
      Кристи скачать торрент
      Кристи смотреть онлайн
      Cкачать фильм Кристи бесплатно
      Кристи скачать торрент в хорошем качестве
      Кристи смотреть онлайн бесплатно в хорошем качестве


      Вы не можете начинать темы
      Вы не можете отвечать на сообщения
      Вы не можете редактировать свои сообщения
      Вы не можете удалять свои сообщения
      Вы не можете голосовать в опросах
      Вы не можете прикреплять файлы к сообщениям
      Вы можете скачивать файлы