1 сезон

3 сезон

iTunes

1

iTunes

DUB Netflix

iTunes

13

1 сезон

RePack

30

Deluxe

pack

Легкие деньги

ВАЖНО

ИГРА 18+

pack

RePack

MK11

RePack

jed

RePack

fifa19

RePack

RDR2

RePack

NEED FOR SPEED™ PAYBACK

4 сезон

9 сезон

Бесстыжие 9 сезон

Все сериалы

все сериалы на PB.wtf

RePack

FAR CRY 5

Anonymous, доброй ночи, мы не успеваем до 1 числа собрать деньги на оплату серверов, помогите нам пожалуйста в это трудное время. В качестве благодарности мы отключим Вам всю рекламу на сайте (укажите свой ник в строку Ваше имя)!

×
  
Magnet ссылка

Внешнее сходство / The Lookalike (Ричард Грэй ) [2014, триллер, драма, криминал, HDRip, Любительский (одноголосый) [datynet] piratbit.pw

Внешнее сходство через торрент piratbit.pw

Размер: 1.45 GB | Добавлен: 6 лет 4 мес. назад | Торрент скачан:226 раз
Скачать  

18-02-2015 14:14 Внешнее сходство Скачать торрент  


Внешнее сходство / The Lookalike


ИНФОРМАЦИЯ:
Год выпуска: 2014
Страна: США
Жанр: триллер, драма, криминал
Продолжительность: 01:40:34
Перевод: Любительский (одноголосый) [datynet]
Режиссер: Ричард Грэй

В Ролях:


Джастин Лонг (Holt Mulligan), Джерри О’Коннелл (Joe Mulligan), Гиллиан Джейкобс (Lacey), Скотти Томпсон (Mila), Стивен Бауэр (Frank), Джина Гершон (Lee Garner), Луис Гусман (Vincent), Джон Корбетт (Bobby), Джон Сэвэдж (William Spinks), Фелиша Террелл (Drew), Бернард Джонс (Jules), Бобби Рэй Коли мл. (Lewis)

ОПИСАНИЕ:
Влиятельный наркобарон Уилльям Спинкс покупает для любовных утех дочь бывшего партнёра - Сэди, за полмиллиона долларов. Напрямую от их свиданий зависит крупная сделка по продаже наркотиков.
Приближённым гангстерам, Бобби и Фрэнки, необходимо присматривать за девушкой, но по нелепой случайности Фрэнки убивает Сэди. Друзья избавляются от бездыханного тела и бросаются на поиски девушки с внешним сходством, ведь на кону стоят большие деньги и их собственные жизни.

  • Мировая премьера:11 июля 2014

    ТЕХ.ДАННЫЕ:
    Качество: HDRip
    Формат: AVI ✦ Видео кодек: XviD ✦ Аудио кодек: AC3
    Видео: 720x304 (2.35:1)| 1614 kbps| 23,976 fps| 0,292 bpp
    Аудио: 5.1 | 48 kHz | 448 kbps | 16 bit |


    Код:

    General
    Complete name                            : D:\Торенты\Vneshnee.shodstvo.2014.L1.HDRip.1490MB.avi
    Format                                   : AVI
    Format/Info                              : Audio Video Interleave
    File size                                : 1.45 GiB
    Duration                                 : 1h 40mn
    Overall bit rate                         : 2 071 Kbps
    Writing application                      : VirtualDubMod 1.5.10.2 (build 2540/release)
    Writing library                          : VirtualDubMod build 2540/release

    Video
    ID                                       : 0
    Format                                   : MPEG-4 Visual
    Format profile                           : Advanced Simple@L5
    Format settings, BVOP                    : 2
    Format settings, QPel                    : No
    Format settings, GMC                     : No warppoints
    Format settings, Matrix                  : Default (MPEG)
    Codec ID                                 : XVID
    Codec ID/Hint                            : XviD
    Duration                                 : 1h 40mn
    Bit rate                                 : 1614 Kbps
    Width                                    : 720 pixels
    Height                                   : 304 pixels
    Display aspect ratio                     : 2.35:1
    Frame rate                               : 23.976 fps
    Color space                              : YUV
    Chroma subsampling                       : 4:2:0
    Bit depth                                : 8 bits
    Scan type                                : Progressive
    Compression mode                         : Lossy
    Bits/(Pixel*Frame)                       : 0.292
    Stream size                              : 1.08 GiB (74%)
    Writing library                          : XviD 1.2.1 (UTC 2008-12-04)

    Audio
    ID                                       : 1
    Format                                   : AC-3
    Format/Info                              : Audio Coding 3
    Mode extension                           : CM (complete main)
    Codec ID                                 : 2000
    Duration                                 : 1h 40mn
    Bit rate mode                            : Constant
    Bit rate                                 : 448 Kbps
    Channel(s)                               : 6 channels
    Channel positions                        : Front: L C R, Side: L R, LFE
    Sampling rate                            : 48.0 KHz
    Bit depth                                : 16 bits
    Compression mode                         : Lossy
    Stream size                              : 322 MiB (22%)
    Alignment                                : Split accross interleaves

    Скриншоты:


    © Оформление by Ворон
    piratbit.pw



  • Скачать Внешнее сходство через торрент https://pic1.kartinco.top/images/61/ordi9.jpg Скачать фильм Внешнее сходство через торрент бесплантно в хорошем качестве Е:Влиятельный наркобарон Уилльям Спинкс покупает для любовных утех дочь бывшего партнёра - Сэди, за полмиллиона долларов. Напрямую от их ... 10 10 4
    Торрент: Зарегистрирован [2015-02-18 14:14] · скачан: 226 раз
    Статус: √ проверено
    Размер: 1.45 GB
    Как cкачать? Как скачать Внешнее сходство через торрент | UTorrent



    Последний раз редактировалось: Ворон (2015-02-18 15:36), всего редактировалось 1 раз

    28-11-2019 20:33  

    Отключить всю рекламу на сайте


    18-02-2015 14:44 Внешнее сходство Скачать торрент  

    Озвучка от datynet, а не от den904piratbit.pw



    18-02-2015 15:29 Внешнее сходство Скачать торрент  

    Loc387 писал(а):

    Озвучка от datynet, а не от den904

    Ты хорошо подумал дядя?!piratbit.pw



    18-02-2015 15:37 Внешнее сходство Скачать торрент  

    Loc387, Спасибо, верно.piratbit.pw



      Дорогой пользователь! Огромная просьба, поблагодарите релизера, оцените раздачу и оставьте свои комментарий, если Вы скачали Внешнее сходство через торрент бесплатно! Внесите свою лепту в развитие PiratBit!
      Комментировать посты могут только пользователи прошедшие не сложную регистрацию
      Показать сообщения:    

      Внешнее сходство через торрент
      Скачать бесплатно Внешнее сходство
      Внешнее сходство скачать торрент
      Внешнее сходство смотреть онлайн
      Cкачать фильм Внешнее сходство бесплатно
      Внешнее сходство скачать торрент в хорошем качестве
      Внешнее сходство смотреть онлайн бесплатно в хорошем качестве


      Вы не можете начинать темы
      Вы не можете отвечать на сообщения
      Вы не можете редактировать свои сообщения
      Вы не можете удалять свои сообщения
      Вы не можете голосовать в опросах
      Вы не можете прикреплять файлы к сообщениям
      Вы можете скачивать файлы