1 сезон

3 сезон

iTunes

1

iTunes

DUB Netflix

iTunes

13

1 сезон

RePack

30

Deluxe

pack

Легкие деньги

ВАЖНО

ИГРА 18+

pack

RePack

MK11

RePack

jed

RePack

fifa19

RePack

RDR2

RePack

NEED FOR SPEED™ PAYBACK

4 сезон

9 сезон

Бесстыжие 9 сезон

Все сериалы

все сериалы на PB.wtf

RePack

FAR CRY 5

Anonymous, доброе утро, мы не успеваем до 1 числа собрать деньги на оплату серверов, помогите нам пожалуйста в это трудное время. В качестве благодарности мы отключим Вам всю рекламу на сайте (укажите свой ник в строку Ваше имя)!

×
  
Magnet ссылка

Ловушка Юрского периода / Jurassic City (Шон Кэйн ) [2014, фантастика, DVDRip, Любительский (одноголосый) [Xixidok] piratbit.pw

Ловушка Юрского периода через торрент piratbit.pw

Размер: 1.05 GB | Добавлен: 6 лет 4 мес. назад | Торрент скачан:257 раз
Скачать  

18-02-2015 13:24 Ловушка Юрского периода Скачать торрент  


Ловушка Юрского периода / Jurassic City


ИНФОРМАЦИЯ:
Год выпуска: 2014
Страна: США
Жанр: фантастика
Продолжительность: 01:28:25
Перевод: Любительский (одноголосый) [Xixidok]
Режиссер: Шон Кэйн

В Ролях:


Рэй Уайз (Warden Lewis), Кевин Гейдж (Doyle), Дэна Мелани (Pippi), Кайла Карлайл (Sarah), Вернон Уэллс (Agent LaFranco), Джек Форсинито (Captain Talbot), София Мэттссон (Stephanie), Роберт ЛаСардо (Corporal Ignacio), Бенжамин Истадэй (Corporal Barnes), Келси Уотсон (Armstrong), Моник Пэрент (Scarlett), Тимоти Мускателл (Bear)

ОПИСАНИЕ:
Три девушки оказываются заперты в тюрьме вместе с генетически модифицированными динозаврами. Чтобы выбраться из западни, им придётся справиться с кровожадными хищниками...

  • Мировая премьера:9 января 2015

    ТЕХ.ДАННЫЕ:
    Качество: DVDRip
    Формат: AVI ✦ Видео кодек: XviD ✦ Аудио кодек: MP3
    Видео: 720x400 (16:9)| 1498 kbps| 23,976 fps| 0,207 bpp
    Аудио: 2.0 | 44 kHz | 192 kbps |


    Код:

    General
    Complete name                            : D:\Торенты\Jurassic.City.2014.Xixidok.avi
    Format                                   : AVI
    Format/Info                              : Audio Video Interleave
    File size                                : 1.05 GiB
    Duration                                 : 1h 28mn
    Overall bit rate                         : 1 700 Kbps
    Writing application                      : VirtualDubMod 1.5.10.3 (build 2550/release)
    Writing library                          : VirtualDubMod build 2550/release

    Video
    ID                                       : 0
    Format                                   : MPEG-4 Visual
    Format profile                           : Advanced Simple@L5
    Format settings, BVOP                    : 2
    Format settings, QPel                    : No
    Format settings, GMC                     : No warppoints
    Format settings, Matrix                  : Default (H.263)
    Codec ID                                 : XVID
    Codec ID/Hint                            : XviD
    Duration                                 : 1h 28mn
    Bit rate                                 :  1498Kbps
    Width                                    : 720 pixels
    Height                                   : 400 pixels
    Display aspect ratio                     : 16:9
    Frame rate                               : 23.976 fps
    Color space                              : YUV
    Chroma subsampling                       : 4:2:0
    Bit depth                                : 8 bits
    Scan type                                : Progressive
    Compression mode                         : Lossy
    Bits/(Pixel*Frame)                       : 0.207
    Stream size                              : 906 MiB (84%)
    Writing library                          : XviD 73

    Audio
    ID                                       : 1
    Format                                   : MPEG Audio
    Format version                           : Version 1
    Format profile                           : Layer 3
    Codec ID                                 : 55
    Codec ID/Hint                            : MP3
    Duration                                 : 1h 28mn
    Bit rate mode                            : Constant
    Bit rate                                 : 192 Kbps
    Channel(s)                               : 2 channels
    Sampling rate                            : 44.1 KHz
    Compression mode                         : Lossy
    Stream size                              : 121 MiB (11%)
    Alignment                                : Split accross interleaves

    Скриншоты:


    © Оформление by Ворон
    piratbit.pw



  • Скачать Ловушка Юрского периода через торрент https://pic1.kartinco.top/images/61/ordi9.jpg Скачать фильм Ловушка Юрского периода через торрент бесплантно в хорошем качестве Е:Три девушки оказываются заперты в тюрьме вместе с генетически модифицированными динозаврами. Чтобы выбраться из западни, им придётся ... 9.9 10 7
    Торрент: Зарегистрирован [2015-02-18 13:24] · скачан: 257 раз
    Статус: T временная
    Размер: 1.05 GB
    Как cкачать? Как скачать Ловушка Юрского периода через торрент | UTorrent

    28-11-2019 20:33  

    Отключить всю рекламу на сайте

    18-02-2015 14:04 Ловушка Юрского периода Скачать торрент  

    пародия на журассик парк?piratbit.pw



    19-02-2015 22:20 Ловушка Юрского периода Скачать торрент  

    асилум )))piratbit.pw



    06-03-2015 16:35 Ловушка Юрского периода Скачать торрент  

    как фильмpiratbit.pw



      Дорогой пользователь! Огромная просьба, поблагодарите релизера, оцените раздачу и оставьте свои комментарий, если Вы скачали Ловушка Юрского периода через торрент бесплатно! Внесите свою лепту в развитие PiratBit!
      Комментировать посты могут только пользователи прошедшие не сложную регистрацию
      Показать сообщения:    

      Ловушка Юрского периода через торрент
      Скачать бесплатно Ловушка Юрского периода
      Ловушка Юрского периода скачать торрент
      Ловушка Юрского периода смотреть онлайн
      Cкачать фильм Ловушка Юрского периода бесплатно
      Ловушка Юрского периода скачать торрент в хорошем качестве
      Ловушка Юрского периода смотреть онлайн бесплатно в хорошем качестве


      Вы не можете начинать темы
      Вы не можете отвечать на сообщения
      Вы не можете редактировать свои сообщения
      Вы не можете удалять свои сообщения
      Вы не можете голосовать в опросах
      Вы не можете прикреплять файлы к сообщениям
      Вы можете скачивать файлы