1 сезон

1 сезон

iTunes

1

КиноПоиск HD

Кинопоиск HD

iTunes

13

1 сезон

RePack

30

Новинка

ВАЖНО

ИГРА 18+

pack

RePack

MK11
pack

Легкие деньги

RePack

jed

RePack

fifa19

RePack

RDR2

RePack

NEED FOR SPEED™ PAYBACK

4 сезон

9 сезон

Бесстыжие 9 сезон

Все сериалы

все сериалы на PB.wtf

RePack

FAR CRY 5
  
Magnet ссылка

Шанхайские рыцари / Shanghai Knights (Дэвид Добкин ) [2003, боевик, комедия, приключения, BDRip, Авторский (одноголосый) / Гаврилов piratbit.pw

Шанхайские рыцари через торрент piratbit.pw

Размер: 1.46 GB | Добавлен: 6 лет 2 мес. назад | Торрент скачан:41 раз
Скачать  

18-02-2015 10:59 Шанхайские рыцари Скачать торрент  


Шанхайские рыцари / Shanghai Knights
«A Royal Kick In The Arse»

ИНФОРМАЦИЯ:
Год выпуска: 2003
Страна: США, Гонконг
Жанр: боевик, комедия, приключения, вестерн
Продолжительность: 01:54:20
Перевод: Авторский (одноголосый) А.Ю.Гаврилов
Режиссер: Дэвид Добкин

В Ролях:


Джеки Чан (Chon Wang), Оуэн Уилсон (Roy O'Bannon), Донни Ен (Wu Chow), Эйдан Гиллен (Rathbone), Аарон Тейлор-Джонсон (Charlie Chaplin), Том Фишер (Artie Doyle), Фэнн Вонг (Chon Lin), Оливер Коттон (Jack the Ripper), Элисон Кинг (Prostitute), Константин Грегори (The Mayor), Джонатан Харви (Fagin #1), Ричард Хаас (Street Preacher)

ОПИСАНИЕ:
После приручения Дикого Запада в комедии «Шанхайский полдень», Чон Ванг и Рой О`Баннон - опять в седле, но на сей раз совсем в другом месте - они оказались в цивилизованном Лондоне в продолжении этого фильма, «Шанхайских Рыцарях».
Когда китайский предатель убивает отца Чона и убегает в Англию, Чон и Рой отправляются за ним в Лондон с планами мести. Сестра Чона, Лин, хочет того же, и раскрывает всемирный заговор против королевской семьи, но почти никто не верит ей.
С помощью любезного инспектора Скотланд Ярда и 10-летнего уличного мальчишки, акробатический Чон дает Викторианской Англии хороший пинок, поскольку он одновременно пытается мстить за смерть своего отца и держать склонного к флирту Роя подальше от сестры.

  • Мировая премьера:30 января 2003

    ТЕХ.ДАННЫЕ:
    Качество: BDRip
    Формат: AVI ✦ Видео кодек: XviD ✦ Аудио кодек: AC3
    Видео: 720x304 (2.35:1)| 1375 kbps| 23,976 fps| 0,248 bpp
    Аудио: 5.1 | 48 kHz | 448 kbps | 16 bit |


    Код:

    General
    Complete name                            : D:\Торенты\Шанхайские рыцари.2003 (Д.Чан, О.Уилсон).avi
    Format                                   : AVI
    Format/Info                              : Audio Video Interleave
    File size                                : 1.46 GiB
    Duration                                 : 1h 54mn
    Overall bit rate                         : 1 832 Kbps
    Writing application                      : VirtualDubMod 1.5.10.3 | www.virtualdub-fr.org || (build 2550/release)
    Writing library                          : VirtualDubMod build 2550/release

    Video
    ID                                       : 0
    Format                                   : MPEG-4 Visual
    Format profile                           : Advanced Simple@L5
    Format settings, BVOP                    : 1
    Format settings, QPel                    : No
    Format settings, GMC                     : No warppoints
    Format settings, Matrix                  : Default (MPEG)
    Codec ID                                 : XVID
    Codec ID/Hint                            : XviD
    Duration                                 : 1h 54mn
    Bit rate                                 : 1375 Kbps
    Width                                    : 720 pixels
    Height                                   : 304 pixels
    Display aspect ratio                     : 2.35:1
    Frame rate                               : 23.976 fps
    Color space                              : YUV
    Chroma subsampling                       : 4:2:0
    Bit depth                                : 8 bits
    Scan type                                : Progressive
    Compression mode                         : Lossy
    Bits/(Pixel*Frame)                       : 0.248
    Stream size                              : 1.04 GiB (71%)
    Writing library                          : XviD 73

    Audio
    ID                                       : 1
    Format                                   : AC-3
    Format/Info                              : Audio Coding 3
    Mode extension                           : CM (complete main)
    Codec ID                                 : 2000
    Duration                                 : 1h 54mn
    Bit rate mode                            : Constant
    Bit rate                                 : 448 Kbps
    Channel(s)                               : 6 channels
    Channel positions                        : Front: L C R, Side: L R, LFE
    Sampling rate                            : 48.0 KHz
    Bit depth                                : 16 bits
    Compression mode                         : Lossy
    Stream size                              : 366 MiB (24%)
    Alignment                                : Split accross interleaves

    Скриншоты:


    © Оформление by Ворон
    piratbit.pw



  • Скачать Шанхайские рыцари через торрент https://pic.kartinco.top/images/6/ordi9.jpg Скачать фильм Шанхайские рыцари через торрент бесплантно в хорошем качестве Е:После приручения Дикого Запада в комедии «Шанхайский полдень», Чон Ванг и Рой О`Баннон - опять в седле, но на сей раз совсем в другом ... 10 10 1
    Торрент: Зарегистрирован [2015-02-18 10:59] · скачан: 41 раз
    Статус: √ проверено
    Размер: 1.46 GB
    Как cкачать? Как скачать Шанхайские рыцари через торрент | UTorrent

    28-11-2019 20:33  

    Отключить всю рекламу на сайте

      Дорогой пользователь! Огромная просьба, поблагодарите релизера, оцените раздачу и оставьте свои комментарий, если Вы скачали Шанхайские рыцари через торрент бесплатно! Внесите свою лепту в развитие PiratBit!
      Комментировать посты могут только пользователи прошедшие не сложную регистрацию
      Показать сообщения:    

      Шанхайские рыцари через торрент
      Скачать бесплатно Шанхайские рыцари
      Шанхайские рыцари скачать торрент
      Шанхайские рыцари смотреть онлайн
      Cкачать фильм Шанхайские рыцари бесплатно
      Шанхайские рыцари скачать торрент в хорошем качестве
      Шанхайские рыцари смотреть онлайн бесплатно в хорошем качестве


      Вы не можете начинать темы
      Вы не можете отвечать на сообщения
      Вы не можете редактировать свои сообщения
      Вы не можете удалять свои сообщения
      Вы не можете голосовать в опросах
      Вы не можете прикреплять файлы к сообщениям
      Вы можете скачивать файлы