1 сезон

1 сезон

iTunes

1

iTunes

Кинопоиск HD

iTunes

13

1 сезон

RePack

30

Deluxe

ВАЖНО

ИГРА 18+

pack

RePack

MK11
pack

Легкие деньги

RePack

jed

RePack

fifa19

RePack

RDR2

RePack

NEED FOR SPEED™ PAYBACK

4 сезон

9 сезон

Бесстыжие 9 сезон

Все сериалы

все сериалы на PB.wtf

RePack

FAR CRY 5
  
Magnet ссылка

Такси 4 / Taxi 4 (Жерар Пире, Жерар Кравчик) [2007 г., Боевик, комедия, криминал, BDRip, Дубляж] piratbit.pw

Такси 4 через торрент piratbit.pw

Размер: 744 MB | Добавлен: 6 лет 2 мес. назад | Торрент скачан:42 раза
Скачать  

18-02-2015 09:33 Такси 4 Скачать торрент  

Такси 4 / Taxi 4
Год выпуска: 2007
Страна: Франция
Жанр: Боевик, комедия, криминал
Продолжительность: 01:30:47
Перевод: Дубляж
Субтитры: нет

Режиссер: Жерар Пире, Жерар Кравчик

В ролях: Сами Насери, Фредерик Дифенталь, Марион Котийяр, Бернар Фарси, Эмма Сьоберг, Эдуард Монтут, Жан-Кристоф Буве, Жан-Люк Кучар, Франсуа Дамиенс, Морад Зегвенди, Джибрил Сиссе

Описание: Спустя пять лет после событий третьего фильма, Даниэль и Эмильен снова вместе и мы вновь имеем возможность наблюдать за их приключениями на этот раз на Лазурном берегу.Полицейский комиссариат лихорадит. В Марсель из Бельгии присылают опаснейшего преступника, который на следующий день должен быть переправлен в желтую жаркую Африку на праведный суд. Несмотря на то, что бандита транспортируют и содержат под стражей в наряде аквалангиста, подозрительно напоминающем смирительную рубашку Доктора Лектера из фильма «Молчание ягнят», ему удается обмануть бдительность копов, выйти из допра и даже организовать грабеж банка в Монте-Карло. Правда, в качестве спецагента в банде Бельгийца принимает непосредственное участие специалист контрразведки, по совместительству - жена центрового персонажа, так что у спецслужб все под колпаком. Но, тем не менее, тотальное разгильдяйство и глупость ажанов дает возможность гангстерам потрепыхаться и повеселить зрителей картинками из блатной жизни марсельско-бельгийского дна. А учитывая тот факт, что все практически полисмены во Франции балуются травкой, то задержать веселых убийц будет не так-то просто. Правда, с помощи лома, топора и такой-то матери правосудие для всех восторжествует.

Качество: BDRip
Формат: AVI
Видео кодек: XviD
Аудио кодек: MP3
Видео: MPEG-4 ,Xvid (688x288), 1007 Кбит/с, 23.976 кадра/сек
Аудио#1: MP3,2 ch,128 kbps (Rus) 48.0 KHz Дублированный
скриншот   скриншот   скриншот  

Тип потока: Видео
Длительность: 01:30:53
Кодек: MPEG-4 Visual
Кодек/профиль: Advanced Simple@L5
Кодек/ID: XVID
Размеры изображения: 688 x 288 (2.40:1)
Частота кадров: 23.976 fps
Размер потока: 655 MiB (88%)
Битрейт: 1 008 Kbps
Метод сжатия: Lossy
Библиотека кодирования: XviD 73
Цветовое пространство: YUV
Тип развёртки: Progressive
Колориметрия: 4:2:0
Глубина: 8 bits
:
Тип потока: Звук #1
Длительность: 01:30:53.376
Кодек: MPEG Audio
Кодек/профиль: Layer 3
Кодек/ID: 55
Частота дискретизации: 48.0 KHz
Каналов: 2 channels
Битрейт: 128 Kbps
Битрейт/тип: Constant
Размер потока: 83.2 MiB (11%)
Метод сжатия: Lossy

piratbit.pw



Скачать Такси 4 через торрент https://pic1.kartinco.top/images/9/xikv1.jpg Скачать фильм Такси 4 через торрент бесплантно в хорошем качестве Описание: Спустя пять лет после событий третьего фильма, Даниэль и Эмильен снова вместе и мы вновь имеем возможность наблюдать за их ... 9.8 10 6
Торрент: Зарегистрирован [2015-02-18 09:33] · скачан: 42 раз
Статус: √ проверено
Размер: 744 MB
Как cкачать? Как скачать Такси 4 через торрент | UTorrent

% Раздел Тема Автор DL S | L
Фильмы [HD 720p, 1080p] (Хороший звук DUB, MVO) [ 11.09 GB ] Такси 4 / Taxi 4 [2007 BDRip 1080p] +DVO+MVO [Director's Cut] Ворон Скачать
1 | 0
Фильмы 2006-2008 [ 1.46 GB ] Такси 4 / Taxi 4 [2007 DVDRip ] Бумер Скачать
1 | 0
Фильмы 2006-2008 [ 1.45 GB ] Такси 4 / Taxi 4 [2007 BDRip] [Режиссерская версия / Director`s cut] DUB sokol_ok Скачать
1 | 0

28-11-2019 20:33  

Отключить всю рекламу на сайте

    Дорогой пользователь! Огромная просьба, поблагодарите релизера, оцените раздачу и оставьте свои комментарий, если Вы скачали Такси 4 через торрент бесплатно! Внесите свою лепту в развитие PiratBit!
    Комментировать посты могут только пользователи прошедшие не сложную регистрацию
    Показать сообщения:    

    Такси 4 через торрент
    Скачать бесплатно Такси 4
    Такси 4 скачать торрент
    Такси 4 смотреть онлайн
    Cкачать фильм Такси 4 бесплатно
    Такси 4 скачать торрент в хорошем качестве
    Такси 4 смотреть онлайн бесплатно в хорошем качестве


    Вы не можете начинать темы
    Вы не можете отвечать на сообщения
    Вы не можете редактировать свои сообщения
    Вы не можете удалять свои сообщения
    Вы не можете голосовать в опросах
    Вы не можете прикреплять файлы к сообщениям
    Вы можете скачивать файлы