1 сезон

3 сезон

iTunes

1

iTunes

DUB Netflix

iTunes

13

1 сезон

RePack

30

Deluxe

pack

Легкие деньги

ВАЖНО

ИГРА 18+

pack

RePack

MK11

RePack

jed

RePack

fifa19

RePack

RDR2

RePack

NEED FOR SPEED™ PAYBACK

4 сезон

9 сезон

Бесстыжие 9 сезон

Все сериалы

все сериалы на PB.wtf

RePack

FAR CRY 5

Anonymous, добрый вечер, мы не успеваем до 1 числа собрать деньги на оплату серверов, помогите нам пожалуйста в это трудное время. В качестве благодарности мы отключим Вам всю рекламу на сайте (укажите свой ник в строку Ваше имя)!

×
  
Magnet ссылка

Миниатюрный остров / La isla mínima (Альберто Родригес ) [2014, боевик, криминал, триллер, HDRip, Любительский (двухголосый) [den904, DeadSno] piratbit.pw

Миниатюрный остров через торрент piratbit.pw

Размер: 1.46 GB | Добавлен: 6 лет 4 мес. назад | Торрент скачан:129 раз
Скачать  

18-02-2015 00:29 Миниатюрный остров Скачать торрент  


Миниатюрный остров / La isla mínima


ИНФОРМАЦИЯ:
Год выпуска:2014
Страна:Испания
Жанр:боевик, криминал, триллер
Продолжительность01:44:17
Перевод:Любительский (двухголосый) [den904, DeadSno]
Режиссер:Альберто Родригес

В Ролях:


Хавьер Гутьеррес (Juan), Рауль Аревало (Pedro), Нереа Баррос (Rocío), Адельфа Калво, Хесус Карроса, Хесус Кастро (Quini), Beatriz Cotobal (Madre Marina), Антонио де ла Торре (Rodrigo), Мерседес Леон, Хесус Ортис, Сальва Реина (Jesús), Маноло Соло (Periodista)

ОПИСАНИЕ:
1980 год. Хуан и Педро - двое полицейских отдела по расследованию убийств Мадрида, идеологические противники - после получения выговоров в наказание должны перебраться в отдаленные и забытые людьми болота Гвадалквивир, чтобы расследовать исчезновение и жестокое убийство двух девочек-подростков во время празднования местного праздника. Вместе они должны преодолеть свои разногласия и найти и противостоять жестокому убийце...

  • Мировая премьера:19 сентября 2014

    ТЕХ.ДАННЫЕ:
    Качество: HDRip
    Формат: AVI ✦ Видео кодек: XviD ✦ Аудио кодек: AC3
    Видео: 720x304 (2.35:1)| 1803 kbps| 23,976 fps| 0,329 bpp
    Аудио: 2.0 | 48 kHz | 192 kbps | 16 bit |


    Код:

    General
    Complete name                            : D:\Торенты\Miniatjurnyj.ostrov.2014.L2.HDRip.1.46GB.avi
    Format                                   : AVI
    Format/Info                              : Audio Video Interleave
    File size                                : 1.46 GiB
    Duration                                 : 1h 44mn
    Overall bit rate                         : 2 005 Kbps
    Writing application                      : VirtualDubMod 1.5.10.2 (build 2540/release)
    Writing library                          : VirtualDubMod build 2540/release

    Video
    ID                                       : 0
    Format                                   : MPEG-4 Visual
    Format profile                           : Advanced Simple@L5
    Format settings, BVOP                    : 2
    Format settings, QPel                    : No
    Format settings, GMC                     : No warppoints
    Format settings, Matrix                  : Custom
    Codec ID                                 : XVID
    Codec ID/Hint                            : XviD
    Duration                                 : 1h 44mn
    Bit rate                                 : 1803 Kbps
    Width                                    : 720 pixels
    Height                                   : 304 pixels
    Display aspect ratio                     : 2.35:1
    Frame rate                               : 23.976 fps
    Color space                              : YUV
    Chroma subsampling                       : 4:2:0
    Bit depth                                : 8 bits
    Scan type                                : Progressive
    Compression mode                         : Lossy
    Bits/(Pixel*Frame)                       : 0.329
    Stream size                              : 1.26 GiB (86%)
    Writing library                          : XviD 1.2.1 (UTC 2008-12-04)

    Audio
    ID                                       : 1
    Format                                   : AC-3
    Format/Info                              : Audio Coding 3
    Mode extension                           : CM (complete main)
    Codec ID                                 : 2000
    Duration                                 : 1h 44mn
    Bit rate mode                            : Constant
    Bit rate                                 : 192 Kbps
    Channel(s)                               : 2 channels
    Channel positions                        : Front: L R
    Sampling rate                            : 48.0 KHz
    Bit depth                                : 16 bits
    Compression mode                         : Lossy
    Stream size                              : 143 MiB (10%)
    Alignment                                : Split accross interleaves

    Скриншоты:


    © Оформление by Ворон
    piratbit.pw



  • Скачать Миниатюрный остров через торрент https://pic1.kartinco.top/images/61/ordi9.jpg Скачать фильм Миниатюрный остров через торрент бесплантно в хорошем качестве Е:1980 год. Хуан и Педро - двое полицейских отдела по расследованию убийств Мадрида, идеологические противники - после получения выговоров ... 8 10 6
    Торрент: Зарегистрирован [2015-02-18 02:21] · скачан: 129 раз
    Статус: T временная
    Размер: 1.46 GB
    Как cкачать? Как скачать Миниатюрный остров через торрент | UTorrent

    28-11-2019 20:33  

    Отключить всю рекламу на сайте

      Дорогой пользователь! Огромная просьба, поблагодарите релизера, оцените раздачу и оставьте свои комментарий, если Вы скачали Миниатюрный остров через торрент бесплатно! Внесите свою лепту в развитие PiratBit!
      Комментировать посты могут только пользователи прошедшие не сложную регистрацию
      Показать сообщения:    

      Миниатюрный остров через торрент
      Скачать бесплатно Миниатюрный остров
      Миниатюрный остров скачать торрент
      Миниатюрный остров смотреть онлайн
      Cкачать фильм Миниатюрный остров бесплатно
      Миниатюрный остров скачать торрент в хорошем качестве
      Миниатюрный остров смотреть онлайн бесплатно в хорошем качестве


      Вы не можете начинать темы
      Вы не можете отвечать на сообщения
      Вы не можете редактировать свои сообщения
      Вы не можете удалять свои сообщения
      Вы не можете голосовать в опросах
      Вы не можете прикреплять файлы к сообщениям
      Вы можете скачивать файлы