1 сезон

3 сезон

iTunes

1

iTunes

DUB Netflix

iTunes

13

1 сезон

RePack

30

Deluxe

pack

Легкие деньги

ВАЖНО

ИГРА 18+

pack

RePack

MK11

RePack

jed

RePack

fifa19

RePack

RDR2

RePack

NEED FOR SPEED™ PAYBACK

4 сезон

9 сезон

Бесстыжие 9 сезон

Все сериалы

все сериалы на PB.wtf

RePack

FAR CRY 5

Anonymous, добрый вечер, мы не успеваем до 1 числа собрать деньги на оплату серверов, помогите нам пожалуйста в это трудное время. В качестве благодарности мы отключим Вам всю рекламу на сайте (укажите свой ник в строку Ваше имя)!

×
  
Magnet ссылка

Будто призрак / Apparitional (Эндрю П. Джонс) [2014, Ужасы, триллер, WEBRip-AVC ] DVO piratbit.pw

Будто призрак через торрент piratbit.pw

Размер: 652 MB | Добавлен: 6 лет 4 мес. назад | Торрент скачан:83 раза
Скачать  

17-02-2015 06:26 Будто призрак Скачать торрент  

Информация о фильме

Название: Будто призрак

Оригинальное название: Apparitional

Год выхода: 2014

Страна: США

Студия: Aunt Max Entertainment, Picture Palace Films

Продолжительность: 01:21:56

Озвучивание: Любительское (двухголосое) [DeadSno & den904]

Перевод: [chup]

Жанр: Ужасы, триллер

Режиссер: Эндрю П. Джонс

В ролях: Джеффри Джонсон, Линара Вашингтон, Чарли Кунц, Билл Литгоу, Ди Уоллес-Стоун, Питер Майер, Аманда Чизм, Ник ДеМаринис, Энди Фриман

Описание:

Находящаяся в затруднительном положении в связи с отсутствием сенсационного матриала, съемочная группа шоу о паранормальных являниях, в отчаянии отправляется в 11й тюремный блок старой заброшенной тюрьмы, где, по убеждению бывшего ее работника да и всех жителей близлежащего городка, обитает страшный призрак психопата. Это последняя надежда охотников за призраками на крутой материал, поскольку их шоу стоит на грани закрытия. Некоторые члены шоу до конца не верят в возможность существования потусторонних сил, но те проявления, с которыми они столкнутся поставят их на грань выживания. Однако, призраки, как известно, жаждут возмездия и охотникам нужно будет не только выжить, но и разгадать загадку, от ответа на которую зависят их жизни.



Файл
Качество: WEBRip-AVC
Формат:MKV
Видео кодек: AVC
Аудио кодек:AC3
Видео: 897 Кбит/с, 720x404-25,000 кадров/сек
Звук: AC3, 2 ch, 192 Кбит/с: 48,0 КГц

Семпл
Общее
Уникальный идентификатор : 213368871119998733817595879096674742207 (0xA085598D1554919A82B4D12A82A4EFBF)
Полное имя : D:\Торенты\БудтоПризрак.mkv
Формат : Matroska
Версия формата : Version 4 / Version 2
Размер файла : 652 Мбайт
Продолжительность : 1 ч. 21 м.
Общий поток : 1111 Кбит/сек
Дата кодирования : UTC 2015-02-16 13:07:19
Программа кодирования : mkvmerge v7.2.0 ('On Every Street') 64bit built on Sep 13 2014 15:52:10
Библиотека кодирования : libebml v1.3.0 + libmatroska v1.4.1
DURATION : 01:21:56.896000000
NUMBER_OF_FRAMES : 153653
NUMBER_OF_BYTES : 118005504
_STATISTICS_WRITING_APP : mkvmerge v7.2.0 ('On Every Street') 64bit built on Sep 13 2014 15:52:10
_STATISTICS_WRITING_DATE_UTC : 2015-02-16 13:07:19
_STATISTICS_TAGS : BPS DURATION NUMBER_OF_FRAMES NUMBER_OF_BYTES

Видео
Идентификатор : 1
Формат : AVC
Формат/Информация : Advanced Video Codec
Профиль формата : High@L3.1
Параметр CABAC формата : Да
Параметр ReFrames формата : 5 кадров
Идентификатор кодека : V_MPEG4/ISO/AVC
Продолжительность : 1 ч. 21 м.
Битрейт : 897 Кбит/сек
Ширина : 720 пикселей
Высота : 404 пикселя
Соотношение сторон : 16:9
Режим частоты кадров : Постоянный
Частота кадров : 25,000 кадров/сек
Цветовое пространство : YUV
Субдискретизация насыщенности : 4:2:0
Битовая глубина : 8 бит
Тип развёртки : Прогрессивная
Бит/(Пиксели*Кадры) : 0.123
Размер потока : 526 Мбайт (81%)
Библиотека кодирования : x264 core 144 r2525 40bb568
Настройки программы : cabac=1 / ref=5 / deblock=1:0:0 / analyse=0x3:0x113 / me=umh / subme=8 / psy=1 / psy_rd=1.00:0.00 / mixed_ref=1 / me_range=16 / chroma_me=1 / trellis=1 / 8x8dct=1 / cqm=0 / deadzone=21,11 / fast_pskip=1 / chroma_qp_offset=-2 / threads=6 / lookahead_threads=1 / sliced_threads=0 / nr=0 / decimate=1 / interlaced=0 / bluray_compat=0 / constrained_intra=0 / bframes=3 / b_pyramid=2 / b_adapt=2 / b_bias=0 / direct=3 / weightb=1 / open_gop=0 / weightp=2 / keyint=250 / keyint_min=25 / scenecut=40 / intra_refresh=0 / rc_lookahead=50 / rc=crf / mbtree=1 / crf=19.0 / qcomp=0.60 / qpmin=10 / qpmax=51 / qpstep=4 / vbv_maxrate=17500 / vbv_bufsize=17500 / crf_max=0.0 / nal_hrd=none / filler=0 / ip_ratio=1.40 / aq=1:1.00
Язык : English
Default : Да
Forced : Нет
DURATION : 01:21:57.120000000
NUMBER_OF_FRAMES : 122928
NUMBER_OF_BYTES : 564078224
_STATISTICS_WRITING_APP : mkvmerge v7.2.0 ('On Every Street') 64bit built on Sep 13 2014 15:52:10
_STATISTICS_WRITING_DATE_UTC : 2015-02-16 13:07:19
_STATISTICS_TAGS : BPS DURATION NUMBER_OF_FRAMES NUMBER_OF_BYTES

Аудио
Идентификатор : 2
Формат : AC-3
Формат/Информация : Audio Coding 3
Расширение режима : CM (complete main)
Параметр Endianness формата : Big
Идентификатор кодека : A_AC3
Продолжительность : 1 ч. 21 м.
Вид битрейта : Постоянный
Битрейт : 192 Кбит/сек
Каналы : 2 канала
Расположение каналов : Front: L R
Частота : 48,0 КГц
Битовая глубина : 16 бит
Метод сжатия : С потерями
Размер потока : 113 Мбайт (17%)
Default : Да
Forced : Нет
Релиз от: piratbit.pw



Скачать Будто призрак через торрент http://s011.radikal.ru/i315/1502/eb/9a3081956bac.jpg Скачать фильм Будто призрак через торрент бесплантно в хорошем качестве Описание: Находящаяся в затруднительном положении в связи с отсутствием сенсационного матриала, съемочная группа шоу о паранормальных ... 9.6 10 5
Торрент: Зарегистрирован [2015-02-17 06:26] · скачан: 83 раз
Статус: T временная
Размер: 652 MB
Как cкачать? Как скачать Будто призрак через торрент | UTorrent

28-11-2019 20:33  

Отключить всю рекламу на сайте

17-02-2015 09:28 Будто призрак Скачать торрент  

Однако, призраки, как известно, жаждут возмездия

ну это вообще очевидный, доказанный факт)piratbit.pw



    Дорогой пользователь! Огромная просьба, поблагодарите релизера, оцените раздачу и оставьте свои комментарий, если Вы скачали Будто призрак через торрент бесплатно! Внесите свою лепту в развитие PiratBit!
    Комментировать посты могут только пользователи прошедшие не сложную регистрацию
    Показать сообщения:    

    Будто призрак через торрент
    Скачать бесплатно Будто призрак
    Будто призрак скачать торрент
    Будто призрак смотреть онлайн
    Cкачать фильм Будто призрак бесплатно
    Будто призрак скачать торрент в хорошем качестве
    Будто призрак смотреть онлайн бесплатно в хорошем качестве


    Вы не можете начинать темы
    Вы не можете отвечать на сообщения
    Вы не можете редактировать свои сообщения
    Вы не можете удалять свои сообщения
    Вы не можете голосовать в опросах
    Вы не можете прикреплять файлы к сообщениям
    Вы можете скачивать файлы