1 сезон

3 сезон

iTunes

1

iTunes

DUB Netflix

iTunes

13

1 сезон

RePack

30

Deluxe

pack

Легкие деньги

ВАЖНО

ИГРА 18+

pack

RePack

MK11

RePack

jed

RePack

fifa19

RePack

RDR2

RePack

NEED FOR SPEED™ PAYBACK

4 сезон

9 сезон

Бесстыжие 9 сезон

Все сериалы

все сериалы на PB.wtf

RePack

FAR CRY 5

Anonymous, доброй ночи, мы не успеваем до 1 числа собрать деньги на оплату серверов, помогите нам пожалуйста в это трудное время. В качестве благодарности мы отключим Вам всю рекламу на сайте (укажите свой ник в строку Ваше имя)!

×
  
Magnet ссылка

Лесной змей / Wyrmwood (Кия Роуч-Тернер ) [2014, ужасы, боевик, WEB-DLRip, Любительский двухголосый [DeadSno & den904] piratbit.pw

Лесной змей через торрент piratbit.pw

Размер: 1.37 GB | Добавлен: 6 лет 4 мес. назад | Торрент скачан:145 раз
Скачать  

16-02-2015 00:23 Лесной змей Скачать торрент  


Лесной змей / Wyrmwood


Информация:
Год выпуска:2014
Страна: Австралия
Жанр:ужасы, боевик
Продолжительность01:38:34
Перевод:Любительский двухголосый [DeadSno & den904]
Режиссер:Кия Роуч-Тернер

В ролях:


Джей Галлахер (Barry), Бьянка Брэди (Brooke), Леон Бурчилл (Benny), Люк МакКензи (The Captain), Юр Кович (Chalker), Кит Агиус (Frank), Катрин Террачини (Annie), Meganne West (Meganne), Кэйн Томпсон (McGaughlin), Бет Обри (Charlotte), Sheridan Harbridge (Sherri), Дэмиэн Дайк (Thompson)

Описание:
Барри был талантливым механиком и семейным человеком, пока его жизнь не была разрушена в канун зомби-апокалипсиса. В дороге он объединяется с ещё одним выжившим, Чалкером, и вместе они вооружают себя, чтобы противостоять на своём пути орде плотоядных монстров, рыщущих в суровых австралийских зарослях.

  • Мировая премьера:19 сентября 2014


    Тех.Данные:
    Качество: WEB-DLRip
    Формат:AVI
    Видео кодек: XviD
    Аудио кодек:MP3
    Видео: XviD, 720x400 (16:9), 1599 kbps, 23,976 fps, 0,259 bpp
    Аудио: AC3, 384 kb/s (6 ch) / 48 kHz

    Код:

    General
    Complete name                            : D:\Торенты\Wyrmwood.2014.L1.WEb-DLRip.1400MB.avi
    Format                                   : AVI
    Format/Info                              : Audio Video Interleave
    File size                                : 1.37 GiB
    Duration                                 : 1h 38mn
    Overall bit rate                         : 1 990 Kbps
    Writing application                      : VirtualDubMod 1.5.10.2 (build 2540/release)
    Writing library                          : VirtualDubMod build 2540/release

    Video
    ID                                       : 0
    Format                                   : MPEG-4 Visual
    Format profile                           : Advanced Simple@L5
    Format settings, BVOP                    : 2
    Format settings, QPel                    : No
    Format settings, GMC                     : No warppoints
    Format settings, Matrix                  : Default (H.263)
    Muxing mode                              : Packed bitstream
    Codec ID                                 : XVID
    Codec ID/Hint                            : XviD
    Duration                                 : 1h 38mn
    Bit rate                                 : 1 789 Kbps
    Width                                    : 720 pixels
    Height                                   : 400 pixels
    Display aspect ratio                     : 16:9
    Frame rate                               : 23.976 fps
    Color space                              : YUV
    Chroma subsampling                       : 4:2:0
    Bit depth                                : 8 bits
    Scan type                                : Progressive
    Compression mode                         : Lossy
    Bits/(Pixel*Frame)                       : 0.259
    Stream size                              : 1.23 GiB (90%)
    Writing library                          : XviD 64

    Audio
    ID                                       : 1
    Format                                   : MPEG Audio
    Format version                           : Version 1
    Format profile                           : Layer 3
    Codec ID                                 : 55
    Codec ID/Hint                            : MP3
    Duration                                 : 1h 38mn
    Bit rate mode                            : Constant
    Bit rate                                 : 384 Kbps
    Channel(s)                               : 6 channels
    Sampling rate                            : 48.1 KHz
    Compression mode                         : Lossy
    Stream size                              : 135 MiB (10%)
    Alignment                                : Split accross interleaves
    Interleave, duration                     : 42 ms (1.00 video frame)
    Interleave, preload duration             : 500 ms

    Скриншоты:


    © Оформление by Ворон
    piratbit.pw



  • Скачать Лесной змей через торрент https://pic1.kartinco.top/images/61/ordi9.jpg Скачать фильм Лесной змей через торрент бесплантно в хорошем качестве Год выпуска:2014✦ Страна: Австралия✦ Жанр:ужасы, боевик ✦ Продолжительность01:38:34✦ Перевод: двухголосый ... 9.1 10 10
    Торрент: Зарегистрирован [2015-02-16 00:23] · скачан: 145 раз
    Статус: √ проверено
    Размер: 1.37 GB
    Как cкачать? Как скачать Лесной змей через торрент | UTorrent

    % Раздел Тема Автор DL S | L
    T Фильмы (WEB-DL 720p, 1080p) [ 3.4 GB ] Лесной змей / Wyrmwood [2014 WEB-DL 720p DVO+VO] Ворон Скачать
    1 | 0
    Фильмы с авторской озвучкой [ 2.03 GB ] Лесной змей / Wyrmwood [2014 HDRip Авторский одноголосый "Д. Есарев"] coc900 Скачать
    1 | 0
    T Фильмы 2014 (Звук TS, Cam, VO, DVO) [ 2.27 GB ] Лесной змей / Wyrmwood [2014 WEB-DLRip-AVC Любительский двухголосый [DeadSno & den904] Ворон Скачать
    1 | 0
    Фильмы 2014 (Звук TS, Cam, VO, DVO) [ 1.37 GB ] Лесной змей / Wyrmwood [2014 WEB-DLRip Любительский [Xixidok] Ворон Скачать
    1 | 0
    Фильмы (WEB-DL 720p, 1080p) [ 3.14 GB ] Лесной змей / Wyrmwood [2014 WEB-DL 720p Любительский [Xixidok] Ворон Скачать
    1 | 0

    28-11-2019 20:33  

    Отключить всю рекламу на сайте

      Дорогой пользователь! Огромная просьба, поблагодарите релизера, оцените раздачу и оставьте свои комментарий, если Вы скачали Лесной змей через торрент бесплатно! Внесите свою лепту в развитие PiratBit!
      Комментировать посты могут только пользователи прошедшие не сложную регистрацию
      Показать сообщения:    

      Лесной змей через торрент
      Скачать бесплатно Лесной змей
      Лесной змей скачать торрент
      Лесной змей смотреть онлайн
      Cкачать фильм Лесной змей бесплатно
      Лесной змей скачать торрент в хорошем качестве
      Лесной змей смотреть онлайн бесплатно в хорошем качестве


      Вы не можете начинать темы
      Вы не можете отвечать на сообщения
      Вы не можете редактировать свои сообщения
      Вы не можете удалять свои сообщения
      Вы не можете голосовать в опросах
      Вы не можете прикреплять файлы к сообщениям
      Вы можете скачивать файлы