1 сезон

3 сезон

iTunes

1

iTunes

DUB Netflix

iTunes

13

1 сезон

RePack

30

Deluxe

pack

Легкие деньги

ВАЖНО

ИГРА 18+

pack

RePack

MK11

RePack

jed

RePack

fifa19

RePack

RDR2

RePack

NEED FOR SPEED™ PAYBACK

4 сезон

9 сезон

Бесстыжие 9 сезон

Все сериалы

все сериалы на PB.wtf

RePack

FAR CRY 5

Anonymous, добрый вечер, мы не успеваем до 1 числа собрать деньги на оплату серверов, помогите нам пожалуйста в это трудное время. В качестве благодарности мы отключим Вам всю рекламу на сайте (укажите свой ник в строку Ваше имя)!

×
  
Magnet ссылка

Тот самый папа / Min så kallade pappa (Ульф Мальмрос ) [2014, драма, HDRip, Любительский (одноголосый) [Pashaup] piratbit.pw

Тот самый папа через торрент piratbit.pw

Размер: 2.05 GB | Добавлен: 6 лет 4 мес. назад | Торрент скачан:18 раз
Скачать  

16-02-2015 00:12 Тот самый папа Скачать торрент  


Тот самый папа / Min så kallade pappa


ИНФОРМАЦИЯ:
Год выпуска:2014
Страна:Швеция
Жанр:драма
Продолжительность02:06:51
Перевод:Любительский (одноголосый) [Pashaup]
Режиссер:Ульф Мальмрос

В Ролях:


Микаэл Нюквист (Martin), Лиза Хенни (Gäst på fest), Вера Витали (Malin), Сверрир Гуднасон (Frank), Това Магнуссон-Норлинг (Barnmorska BVC), Йоханнес Брост, Йозефин Нельден (Sjuksköterska), Henrik Dorsin, Мартин Алиага, Лотта Тейле, Муа Силен (Malins mamma), Джимми Линдстрём (Servitör)

ОПИСАНИЕ:
Малин всю жизнь тщательно взращивала в себе комплекс, что она самая несчастная женщина на планете, потому что росла без отца, который оставил их с мамой много лет назад. Отсюда и все ее беды: и в личной жизни бардак и карьера не складывается... И вот сейчас, когда ей уже за 30, и она сама готовится стать матерью, ей приходит в голову блистательная идея: найти этого «того самого папу» и высказать ему все свои претензии. Реальность оказывается куда более необычной, чем она предполагала: ее отец — известная личность с ужасным, скверным характером и еще с провалами в памяти...

  • Мировая премьера:19 сентября 2014

    ТЕХ.ДАННЫЕ:
    Качество: HDRip
    Формат: AVI ✦ Видео кодек: XviD ✦ Аудио кодек: AC3
    Видео: 720x304 (2.35:1)| 1857 kbps| 24 fps| 0,337 bpp
    Аудио: 5.1 | 48 kHz | 448 kbps | 16 bit |


    Код:

    General
    Complete name                            : D:\Торенты\Tot.samyj.papa.2014.L1.HDRip.2100Mb.Freerutor.com.avi
    Format                                   : AVI
    Format/Info                              : Audio Video Interleave
    File size                                : 2.05 GiB
    Duration                                 : 2h 6mn
    Overall bit rate                         : 2 317 Kbps
    Writing application                      : VirtualDubMod 1.5.10.3 | www.virtualdub-fr.org || (build 2550/release)
    Writing library                          : VirtualDubMod build 2550/release

    Video
    ID                                       : 0
    Format                                   : MPEG-4 Visual
    Format profile                           : Advanced Simple@L5
    Format settings, BVOP                    : 2
    Format settings, QPel                    : No
    Format settings, GMC                     : No warppoints
    Format settings, Matrix                  : Default (MPEG)
    Codec ID                                 : XVID
    Codec ID/Hint                            : XviD
    Duration                                 : 2h 6mn
    Bit rate                                 :  1857 Kbps
    Width                                    : 720 pixels
    Height                                   : 304 pixels
    Display aspect ratio                     : 2.35:1
    Frame rate                               : 24.000 fps
    Color space                              : YUV
    Chroma subsampling                       : 4:2:0
    Bit depth                                : 8 bits
    Scan type                                : Progressive
    Compression mode                         : Lossy
    Bits/(Pixel*Frame)                       : 0.337
    Stream size                              : 1.57 GiB (76%)
    Writing library                          : XviD 1.2.1 (UTC 2008-12-04)

    Audio
    ID                                       : 1
    Format                                   : AC-3
    Format/Info                              : Audio Coding 3
    Mode extension                           : CM (complete main)
    Codec ID                                 : 2000
    Duration                                 : 2h 6mn
    Bit rate mode                            : Constant
    Bit rate                                 : 448 Kbps
    Channel(s)                               : 6 channels
    Channel positions                        : Front: L C R, Side: L R, LFE
    Sampling rate                            : 48.0 KHz
    Bit depth                                : 16 bits
    Compression mode                         : Lossy
    Stream size                              : 407 MiB (19%)
    Alignment                                : Split accross interleaves

    Скриншоты:


    © Оформление by Ворон
    piratbit.pw



  • Скачать Тот самый папа через торрент https://pic1.kartinco.top/images/61/ordi9.jpg Скачать фильм Тот самый папа через торрент бесплантно в хорошем качестве Е:Малин всю жизнь тщательно взращивала в себе комплекс, что она самая несчастная женщина на планете, потому что росла без отца, который ... 10 10 1
    Торрент: Зарегистрирован [2015-02-16 00:12] · скачан: 18 раз
    Статус: T временная
    Размер: 2.05 GB
    Как cкачать? Как скачать Тот самый папа через торрент | UTorrent

    % Раздел Тема Автор DL S | L
    T Фильмы 2014 (Звук TS, Cam, VO, DVO) [ 1.46 GB ] Тот самый папа / Min så kallade pappa [2014 HDRip Любительский [Pashaup] Ворон Скачать
    1 | 0

    28-11-2019 20:33  

    Отключить всю рекламу на сайте

      Дорогой пользователь! Огромная просьба, поблагодарите релизера, оцените раздачу и оставьте свои комментарий, если Вы скачали Тот самый папа через торрент бесплатно! Внесите свою лепту в развитие PiratBit!
      Комментировать посты могут только пользователи прошедшие не сложную регистрацию
      Показать сообщения:    

      Тот самый папа через торрент
      Скачать бесплатно Тот самый папа
      Тот самый папа скачать торрент
      Тот самый папа смотреть онлайн
      Cкачать фильм Тот самый папа бесплатно
      Тот самый папа скачать торрент в хорошем качестве
      Тот самый папа смотреть онлайн бесплатно в хорошем качестве


      Вы не можете начинать темы
      Вы не можете отвечать на сообщения
      Вы не можете редактировать свои сообщения
      Вы не можете удалять свои сообщения
      Вы не можете голосовать в опросах
      Вы не можете прикреплять файлы к сообщениям
      Вы можете скачивать файлы