1 сезон

3 сезон

iTunes

1

iTunes

DUB Netflix

iTunes

13

1 сезон

RePack

30

Deluxe

pack

Легкие деньги

ВАЖНО

ИГРА 18+

pack

RePack

MK11

RePack

jed

RePack

fifa19

RePack

RDR2

RePack

NEED FOR SPEED™ PAYBACK

4 сезон

9 сезон

Бесстыжие 9 сезон

Все сериалы

все сериалы на PB.wtf

RePack

FAR CRY 5

Anonymous, добрый вечер, мы не успеваем до 1 числа собрать деньги на оплату серверов, помогите нам пожалуйста в это трудное время. В качестве благодарности мы отключим Вам всю рекламу на сайте (укажите свой ник в строку Ваше имя)!

×
  
Magnet ссылка

Один выстрел / One Shot (Джон Лойд ) [2014, боевик, HDRip, Любительский (одноголосый) [zamez] piratbit.pw

Один выстрел через торрент piratbit.pw

Размер: 1.37 GB | Добавлен: 6 лет 4 мес. назад | Торрент скачан:192 раза
Скачать  

14-02-2015 22:14 Один выстрел Скачать торрент  


Один выстрел / One Shot


ИНФОРМАЦИЯ:
Год выпуска:2014
Страна:США
Жанр:боевик
Продолжительность01:35:19
Перевод:Любительский (одноголосый) [zamez]
Режиссер:Джон Лойд

В Ролях:


Жак Грэй (Niles), Скотт Хэнкс (Antarah), Пол Хант (Jason Carpenter), Мэттью Риз (Kyle Matthews), Кевин Сорбо (Commander Gibson), Джэси Твисс (Tech Austen)

ОПИСАНИЕ:
Когда Кайл Мэттьюс - элитный снайпер из сил защиты Мира был пойман в плен на вражеской территории, его навыки были проверены в его стремлении выжить против всей армады Церулинских солдат. Ад намеревался стереть все человечество, но когда простая церулианка была застрелена и брошена ее же королем, Кайл должен сделать выбор между своей жизнью и смертью своего врага.

  • Мировая премьера:7 октября 2014

    ТЕХ.ДАННЫЕ:
    Качество: HDRip
    Формат: AVI | Видео кодек: XviD | Аудио кодек: AC3
    Видео: ✦720x400 (16:9)✦ 1852 kbps✦ 23,976 fps✦ 0,257 bpp
    Аудио: ✦2.0 ✦ 48 kHz ✦ 192 kbps ✦ 16 bit ✦


    Код:

    General
    Complete name                            : D:\Торенты\One.Shot.2014.L1.HDRip.1400Mb.avi
    Format                                   : AVI
    Format/Info                              : Audio Video Interleave
    File size                                : 1.37 GiB
    Duration                                 : 1h 35mn
    Overall bit rate                         : 2 053 Kbps
    Writing application                      : VirtualDubMod 1.5.10.3 | www.virtualdub-fr.org || (build 2550/release)
    Writing library                          : VirtualDubMod build 2550/release

    Video
    ID                                       : 0
    Format                                   : MPEG-4 Visual
    Format profile                           : Advanced Simple@L5
    Format settings, BVOP                    : 2
    Format settings, QPel                    : No
    Format settings, GMC                     : No warppoints
    Format settings, Matrix                  : Default (MPEG)
    Codec ID                                 : XVID
    Codec ID/Hint                            : XviD
    Duration                                 : 1h 35mn
    Bit rate                                 : 1852 Kbps
    Width                                    : 720 pixels
    Height                                   : 400 pixels
    Display aspect ratio                     : 16:9
    Frame rate                               : 23.976 fps
    Color space                              : YUV
    Chroma subsampling                       : 4:2:0
    Bit depth                                : 8 bits
    Scan type                                : Progressive
    Compression mode                         : Lossy
    Bits/(Pixel*Frame)                       : 0.257
    Stream size                              : 1.18 GiB (86%)
    Writing library                          : XviD 1.2.1 (UTC 2008-12-04)

    Audio
    ID                                       : 1
    Format                                   : AC-3
    Format/Info                              : Audio Coding 3
    Mode extension                           : CM (complete main)
    Codec ID                                 : 2000
    Duration                                 : 1h 35mn
    Bit rate mode                            : Constant
    Bit rate                                 : 192 Kbps
    Channel(s)                               : 2 channels
    Channel positions                        : Front: L R
    Sampling rate                            : 48.0 KHz
    Bit depth                                : 16 bits
    Compression mode                         : Lossy
    Stream size                              : 131 MiB (9%)
    Alignment                                : Split accross interleaves

    Скриншоты:


    © Оформление by Ворон
    piratbit.pw



  • Скачать Один выстрел через торрент https://pic1.kartinco.top/images/61/ordi9.jpg Скачать фильм Один выстрел через торрент бесплантно в хорошем качестве Е:Когда Кайл Мэттьюс - элитный снайпер из сил защиты Мира был пойман в плен на вражеской территории, его навыки были проверены в его ... 10 10 5
    Торрент: Зарегистрирован [2015-02-14 22:14] · скачан: 192 раз
    Статус: √ проверено
    Размер: 1.37 GB
    Как cкачать? Как скачать Один выстрел через торрент | UTorrent

    % Раздел Тема Автор DL S | L
    Документальные фильмы и телепередачи [ 454 MB ] Снайперы. Один выстрел - один труп / Snipers: One Shot One Kill [2002 Документальный SATRip ] schultz Скачать
    1 | 0
    Фильмы [HD 720p, 1080p] (Звук Cam, VO, DVO) [ 3.44 GB ] Один выстрел / One Shot [2014 BDRip 720p Любительский [zamez] Ворон Скачать
    1 | 0

    28-11-2019 20:33  

    Отключить всю рекламу на сайте

    14-02-2015 22:36 Один выстрел Скачать торрент  

    Видимо шлакpiratbit.pw



    14-02-2015 23:28 Один выстрел Скачать торрент  

    рейтинг подсказывает что не стоит )piratbit.pw



    15-02-2015 02:10 Один выстрел Скачать торрент  

    мне кажется что Кевин Сорбо совсем побирается с такими фильмамиpiratbit.pw



      Дорогой пользователь! Огромная просьба, поблагодарите релизера, оцените раздачу и оставьте свои комментарий, если Вы скачали Один выстрел через торрент бесплатно! Внесите свою лепту в развитие PiratBit!
      Комментировать посты могут только пользователи прошедшие не сложную регистрацию
      Показать сообщения:    

      Один выстрел через торрент
      Скачать бесплатно Один выстрел
      Один выстрел скачать торрент
      Один выстрел смотреть онлайн
      Cкачать фильм Один выстрел бесплатно
      Один выстрел скачать торрент в хорошем качестве
      Один выстрел смотреть онлайн бесплатно в хорошем качестве


      Вы не можете начинать темы
      Вы не можете отвечать на сообщения
      Вы не можете редактировать свои сообщения
      Вы не можете удалять свои сообщения
      Вы не можете голосовать в опросах
      Вы не можете прикреплять файлы к сообщениям
      Вы можете скачивать файлы