1 сезон

3 сезон

iTunes

1

iTunes

DUB Netflix

iTunes

13

1 сезон

RePack

30

Deluxe

pack

Легкие деньги

ВАЖНО

ИГРА 18+

pack

RePack

MK11

RePack

jed

RePack

fifa19

RePack

RDR2

RePack

NEED FOR SPEED™ PAYBACK

4 сезон

9 сезон

Бесстыжие 9 сезон

Все сериалы

все сериалы на PB.wtf

RePack

FAR CRY 5

Anonymous, доброй ночи, мы не успеваем до 1 числа собрать деньги на оплату серверов, помогите нам пожалуйста в это трудное время. В качестве благодарности мы отключим Вам всю рекламу на сайте (укажите свой ник в строку Ваше имя)!

×
  
Magnet ссылка

71 / '71 (Ян Деманж ) [2014, боевик, триллер, драма, HDRip, Любительский двухголосый [Sunny-Films] piratbit.pw

71 через торрент piratbit.pw

Размер: 1.46 GB | Добавлен: 6 лет 3 мес. назад | Торрент скачан:183 раза
Скачать  

13-02-2015 12:39 71 Скачать торрент  


71 / '71


Информация:
Год выпуска:2014
Страна: Великобритания
Жанр:боевик, триллер, драма, военный
Продолжительность01:38:58
Перевод:Любительский двухголосый [Sunny-Films]
Режиссер:Ян Деманж

В ролях:


Джек О’Коннелл (Gary Hook), Пол Андерсон (Sergeant Leslie Lewis), Шон Харрис (Captain Sandy Browning), Сэм Рид (Lt. Armitage), Чарли Мерфи (Brigid), Сэм Хэзелдайн (C.O.), Джек Лауден (Thommo), Валин Кэйн (Orla (Spitting Woman)), Киллиан Скотт (Quinn), Барри Кеоган (Sean Bannon), Мартин МакКанн (Paul Haggerty), Ричард Дормер (Eamon)

Описание:
1971 год. Конфликт в Северной Ирландии перерастает в гражданскую войну. Новобранца Гари отправляют в зону военных действий в Белфасте. Город разделился на «лояльных» протестантов и «враждебных» католиков. Обе стороны имеют военизированные подразделения, кроме того, радикальные уличные банды и тайные агенты со всех сторон пытаются отстаивать свои интересы...

  • Мировая премьера:7 февраля 2014

    Тех.Данные:
    Качество: HDRip
    Формат:AVI
    Видео кодек: XviD
    Аудио кодек:MP3
    Видео: XviD, 720x304 (2.35:1), 1900 kbps, 25 fps, 0,227 bpp
    Аудио: MP3 / 2.0 / 48 kHz / 192 kbps / сэмпл http://multi-up.com/1036648

    Код:

    General
    Complete name                            : D:\Торенты\'71.2014.HDRip.XviD.avi
    Format                                   : AVI
    Format/Info                              : Audio Video Interleave
    File size                                : 1.04 GiB
    Duration                                 : 1h 38mn
    Overall bit rate                         : 1 500 Kbps
    Writing library                          : VirtualDub build 34753/release

    Video
    ID                                       : 0
    Format                                   : MPEG-4 Visual
    Format profile                           : Advanced Simple@L5
    Format settings, BVOP                    : 2
    Format settings, QPel                    : No
    Format settings, GMC                     : No warppoints
    Format settings, Matrix                  : Default (H.263)
    Codec ID                                 : XVID
    Codec ID/Hint                            : XviD
    Duration                                 : 1h 38mn
    Bit rate                                 : 1 298 Kbps
    Width                                    : 720 pixels
    Height                                   : 304 pixels
    Display aspect ratio                     : 2.35:1
    Frame rate                               : 25.000 fps
    Color space                              : YUV
    Chroma subsampling                       : 4:2:0
    Bit depth                                : 8 bits
    Scan type                                : Progressive
    Compression mode                         : Lossy
    Bits/(Pixel*Frame)                       : 0.227
    Stream size                              : 878 MiB (83%)
    Writing library                          : XviD 64

    Audio
    ID                                       : 1
    Format                                   : MPEG Audio
    Format version                           : Version 1
    Format profile                           : Layer 3
    Codec ID                                 : 55
    Codec ID/Hint                            : MP3
    Duration                                 : 1h 38mn
    Bit rate mode                            : Constant
    Bit rate                                 : 192 Kbps
    Channel(s)                               : 2 channels
    Sampling rate                            : 48.1 KHz
    Compression mode                         : Lossy
    Stream size                              : 136 MiB (13%)
    Alignment                                : Split accross interleaves

    Скриншоты:


    © Оформление by Ворон
    piratbit.pw



  • Скачать 71 через торрент https://pic1.kartinco.top/images/61/ordi9.jpg Скачать фильм 71 через торрент бесплантно в хорошем качестве Год выпуска:2014✦ Страна: Великобритания✦ Жанр:боевик, триллер, драма, военный ✦ Продолжительность01:38:58✦ ... 10 10 9
    Торрент: Зарегистрирован [2015-03-05 19:52] · скачан: 183 раз
    Статус: T временная
    Размер: 1.46 GB
    Как cкачать? Как скачать 71 через торрент | UTorrent

    28-11-2019 20:33  

    Отключить всю рекламу на сайте

      Дорогой пользователь! Огромная просьба, поблагодарите релизера, оцените раздачу и оставьте свои комментарий, если Вы скачали 71 через торрент бесплатно! Внесите свою лепту в развитие PiratBit!
      Комментировать посты могут только пользователи прошедшие не сложную регистрацию
      Показать сообщения:    

      71 через торрент
      Скачать бесплатно 71
      71 скачать торрент
      71 смотреть онлайн
      Cкачать фильм 71 бесплатно
      71 скачать торрент в хорошем качестве
      71 смотреть онлайн бесплатно в хорошем качестве


      Вы не можете начинать темы
      Вы не можете отвечать на сообщения
      Вы не можете редактировать свои сообщения
      Вы не можете удалять свои сообщения
      Вы не можете голосовать в опросах
      Вы не можете прикреплять файлы к сообщениям
      Вы можете скачивать файлы