Ссылка на приватное зеркало нашего сайта всего за 1$. Внимание количество ограничено!!!

2 сезон

iTunes

1 сезон

1

iTunes

iTunes

iTunes

1 сезон

RePack

30

ИГРА 18+

pack

ВАЖНО

!!Акция!!

Alien_RageХит недели

RePack

MK11
pack

Забери бонус

RePack

jed

!!Акция!!

Alien_Rage

RePack

fifa19

RePack

Assassins Creed: Odyssey

RePack

NEED FOR SPEED™ PAYBACK

4 сезон

9 сезон

Бесстыжие 9 сезон

Все сериалы

все сериалы на PB.wtf

RePack

FAR CRY 5
  

Как меня зовут (Нигина Сайфуллаева ) [2014, драма, WEB-DLRip] (iTunes) piratbit.pw

Как меня зовут через торрент piratbit.pw

Размер: 1.37 GB | Добавлен: 5 лет 8 мес. назад | Торрент скачан:793 раза
Скачать  

13-02-2015 09:47 Как меня зовут Скачать торрент  


Как меня зовут


Информация:
Год выпуска:2014
Страна: Россия
Жанр:драма
Продолжительность01:26:54
Перевод:Не требуется
Режиссер:Нигина Сайфуллаева

В ролях:


Константин Лавроненко (Сергей), Александра Бортич (Саша), Марина Васильева (Оля), Кирилл Каганович (Кирилл), Анна Котова (Света)

Описание:
17-летние москвички Оля и Саша отправляются в Крым, чтобы познакомиться с Олиным отцом Сергеем. Сергей всю жизнь прожил в маленьком приморском поселке и никогда не видел свою единственную дочь. На пороге его дома Оля пугается предстоящей встречи и просит Сашу «поменяться местами». Саша представляется Олей, то есть дочерью, а Оля выдает себя за ее подружку. Поначалу этот розыгрыш забавляет девчонок, но они не подозревают, что невинная шутка обернётся драмой и перевернет жизнь всех ее участников.

  • Мировая премьера:22 сентября 2014

    Тех.Данные:
    Качество: WEB-DLRip
    Формат:AVI
    Видео кодек: XviD
    Аудио кодек:AC3
    Видео: XviD, 720x304 (2.35:1), 1857 kbps, 25 fps, 0,323 bpp
    Аудио: AC3 / 5.1 / 48 kHz / 384 kbps / 16 bit

    Код:

    General
    Complete name                            : D:\Торенты\Kak.Nen1ya.Z0vut.2014.O.WEB-DLRip.1400MB.avi
    Format                                   : AVI
    Format/Info                              : Audio Video Interleave
    File size                                : 1.37 GiB
    Duration                                 : 1h 26mn
    Overall bit rate                         : 2 252 Kbps
    Writing application                      : VirtualDubMod 1.5.10.2 (build 2540/release)
    Writing library                          : VirtualDubMod build 2540/release

    Video
    ID                                       : 0
    Format                                   : MPEG-4 Visual
    Format profile                           : Advanced Simple@L5
    Format settings, BVOP                    : 2
    Format settings, QPel                    : No
    Format settings, GMC                     : No warppoints
    Format settings, Matrix                  : Default (MPEG)
    Codec ID                                 : XVID
    Codec ID/Hint                            : XviD
    Duration                                 : 1h 26mn
    Bit rate                                 : 1857 Kbps
    Width                                    : 720 pixels
    Height                                   : 304 pixels
    Display aspect ratio                     : 2.35:1
    Frame rate                               : 25.000 fps
    Color space                              : YUV
    Chroma subsampling                       : 4:2:0
    Bit depth                                : 8 bits
    Scan type                                : Progressive
    Compression mode                         : Lossy
    Bits/(Pixel*Frame)                       : 0.323
    Stream size                              : 1.07 GiB (79%)
    Writing library                          : XviD 1.2.1 (UTC 2008-12-04)

    Audio
    ID                                       : 1
    Format                                   : AC-3
    Format/Info                              : Audio Coding 3
    Mode extension                           : CM (complete main)
    Codec ID                                 : 2000
    Duration                                 : 1h 26mn
    Bit rate mode                            : Constant
    Bit rate                                 : 384 Kbps
    Channel(s)                               : 6 channels
    Channel positions                        : Front: L C R, Side: L R, LFE
    Sampling rate                            : 48.0 KHz
    Bit depth                                : 16 bits
    Compression mode                         : Lossy
    Stream size                              : 239 MiB (17%)
    Alignment                                : Split accross interleaves

    Скриншоты:


    © Оформление by Ворон
    piratbit.pw



  • Скачать Как меня зовут через торрент http://pic.kartinco.top/images/6/ordi9.jpg Скачать фильм Как меня зовут через торрент бесплантно в хорошем качестве Год выпуска:2014✦ Страна: Россия✦ Жанр:драма✦ Продолжительность01:26:54✦ Перевод:Не требуется✦ Режиссер:Нигина Сайфуллаева В ролях: ... 9.6 10 12
    Торрент: Зарегистрирован [2015-02-13 09:47] · скачан: 793 раз
    Статус: √ проверено
    Размер: 1.37 GB
    Как cкачать? Как скачать Как меня зовут через торрент | qTorrent

    % Раздел Тема Автор DL S | L
    Наши фильмы (HD, WEB-DL 720p, 1080p) [ 2.94 GB ] Как меня зовут [2014 WEB-DL 1080p]() Ворон Скачать
    1 | 0

    28-11-2019 20:33  

    Отключить всю рекламу на сайте

      Дорогой пользователь! Огромная просьба, поблагодарите релизера, оцените раздачу и оставьте свои комментарий, если Вы скачали Как меня зовут через торрент бесплатно! Внесите свою лепту в развитие PiratBit!
      Комментировать посты могут только пользователи прошедшие не сложную регистрацию
      Показать сообщения:    

      Как меня зовут через торрент
      Скачать бесплатно Как меня зовут
      Как меня зовут скачать торрент
      Как меня зовут смотреть онлайн
      Cкачать фильм Как меня зовут бесплатно
      Как меня зовут скачать торрент в хорошем качестве
      Как меня зовут смотреть онлайн бесплатно в хорошем качестве


      Вы не можете начинать темы
      Вы не можете отвечать на сообщения
      Вы не можете редактировать свои сообщения
      Вы не можете удалять свои сообщения
      Вы не можете голосовать в опросах
      Вы не можете прикреплять файлы к сообщениям
      Вы можете скачивать файлы