Ссылка на приватное зеркало нашего сайта всего за 1$. Внимание количество ограничено!!!

2 сезон

iTunes

1 сезон

1

iTunes

iTunes

iTunes

1 сезон

RePack

30

ИГРА 18+

pack

ВАЖНО

!!Акция!!

Alien_RageХит недели

RePack

MK11
pack

Забери бонус

RePack

jed

!!Акция!!

Alien_Rage

RePack

fifa19

RePack

Assassins Creed: Odyssey

RePack

NEED FOR SPEED™ PAYBACK

4 сезон

9 сезон

Бесстыжие 9 сезон

Все сериалы

все сериалы на PB.wtf

RePack

FAR CRY 5
  

Швейцар (Аркадий Яхнис ) [2014, триллер, SATRip] piratbit.pw

Швейцар через торрент piratbit.pw

Размер: 895 MB | Добавлен: 5 лет 8 мес. назад | Торрент скачан:473 раза
Скачать  

13-02-2015 07:43 Швейцар Скачать торрент  


Швейцар


Информация:
Год выпуска:2014
Страна: Россия
Жанр:триллер
Продолжительность01:16:40
Перевод:Не требуется
Режиссер:Аркадий Яхнис

В ролях:

Мария Бердинских, Андрей Сергеев

Описание:
Он швейцар в респектабельном ресторане. Но у него есть и другая тайная жизнь. Он связан с криминальной группировкой, занимающейся похищением детей богатых родителей. Он никого никогда не убивал, он просто сторож. Как долго он готов сторожить? Сейчас в его квартире заложница - красивая 25-летняя девушка... Заложница и похититель попадают во взаимную зависимость: она полностью в его власти, он же находит в ней собеседника, которому может исповедаться...


Тех.Данные:
Качество: SATRip
Формат:AVI
Видео кодек: XviD
Аудио кодек:MP3
Видео: XviD, 720x400 (16:9), 1430 kbps, 25 fps, 0,199 bpp
Аудио: MP3 / 2.0 / 48 kHz / 128 kbps /

Код:

General
Complete name                            : D:\Торенты\Shvejcar.2014.SATRip.avi
Format                                   : AVI
Format/Info                              : Audio Video Interleave
File size                                : 895 MiB
Duration                                 : 1h 16mn
Overall bit rate                         : 1 632 Kbps
Writing library                          : VirtualDub-MPEG2 build 24600/release

Video
ID                                       : 0
Format                                   : MPEG-4 Visual
Format profile                           : Advanced Simple@L5
Format settings, BVOP                    : 2
Format settings, QPel                    : No
Format settings, GMC                     : No warppoints
Format settings, Matrix                  : Default (H.263)
Muxing mode                              : Packed bitstream
Codec ID                                 : XVID
Codec ID/Hint                            : XviD
Duration                                 : 1h 16mn
Bit rate                                 : 1 431 Kbps
Width                                    : 720 pixels
Height                                   : 400 pixels
Display aspect ratio                     : 16:9
Frame rate                               : 25.000 fps
Color space                              : YUV
Chroma subsampling                       : 4:2:0
Bit depth                                : 8 bits
Scan type                                : Progressive
Compression mode                         : Lossy
Bits/(Pixel*Frame)                       : 0.199
Stream size                              : 785 MiB (88%)
Writing library                          : XviD 1.2.1 (UTC 2008-12-04)

Audio
ID                                       : 1
Format                                   : MPEG Audio
Format version                           : Version 1
Format profile                           : Layer 3
Mode                                     : Joint stereo
Mode extension                           : MS Stereo
Codec ID                                 : 55
Codec ID/Hint                            : MP3
Duration                                 : 1h 16mn
Bit rate mode                            : Constant
Bit rate                                 : 128 Kbps
Channel(s)                               : 2 channels
Sampling rate                            : 48.0 KHz
Compression mode                         : Lossy
Stream size                              : 70.2 MiB (8%)
Alignment                                : Split accross interleaves

Скриншоты:


© Оформление by Ворон
piratbit.pw



Скачать Швейцар через торрент http://pic.kartinco.top/images/6/ordi9.jpg Скачать фильм Швейцар через торрент бесплантно в хорошем качестве Год выпуска:2014✦ Страна: Россия✦ Жанр:триллер✦ Продолжительность01:16:40✦ Перевод:Не требуется✦ Режиссер:Аркадий Яхнис В ролях:Мария ... 9.1 10 10
Торрент: Зарегистрирован [2015-02-13 07:43] · скачан: 473 раз
Статус: √ проверено
Размер: 895 MB
Как cкачать? Как скачать Швейцар через торрент | qTorrent

% Раздел Тема Автор DL S | L
Лига Европы [ 3.67 GB ] Лига Европы 19-2020 / 3-й квалификационный раунд / 2-й матч / Спартак - Тун / Spartak - Thun / Матч Премьер HD [15.08.2019 Футбол IPTV/1080p/25fps MKV/H.264 RU] bober100 Скачать
1 | 0
Фильмы 2016 [DVDrip, WEB-DLRip, HDrip] (DUB, MVO) [ 1.46 GB ] Человек – швейцарский нож / Swiss Army Man [2016 мюзикл BDRip] - [] Twi7ter Скачать
1 | 0
Фильмы [HD 720p, 1080p] (Хороший звук DUB, MVO) [ 11.01 GB ] Человек - швейцарский нож / Swiss Army Man [2016 BDRip 1080p by msltel] DUB 2 x AVO msltel Скачать
1 | 0
Фильмы [HD 720p, 1080p] (Хороший звук DUB, MVO) [ 4.37 GB ] Человек - швейцарский нож / Swiss Army Man [2016 BDRip 720p by msltel] DUB 2 x AVO msltel Скачать
1 | 0
Чемпионат Мира [ 8.96 GB ] Чемпионат Мира 2018 / 1/8 финала / Швеция - Швейцария / Матч ТВ HD [03.07.2018 Футбол HDTV/1080i TS/H.264 RU/INT] bober100 Скачать
1 | 0
Фильмы 2016 [DVDrip, WEB-DLRip, HDrip] (DUB, MVO) [ 1.46 GB ] Человек – швейцарский нож / Swiss Army Man [2016 Мюзикл BDRip] DUB [ R5] bober100 Скачать
1 | 0
Фильмы (Blu-ray, BD-Remux, HDDVD) [ 27.26 GB ] Человек – швейцарский нож / Swiss Army Man [2016 Мюзикл BD Remux 1080p] DUB [] bober100 Скачать
1 | 0

28-11-2019 20:33  

Отключить всю рекламу на сайте

    Дорогой пользователь! Огромная просьба, поблагодарите релизера, оцените раздачу и оставьте свои комментарий, если Вы скачали Швейцар через торрент бесплатно! Внесите свою лепту в развитие PiratBit!
    Комментировать посты могут только пользователи прошедшие не сложную регистрацию
    Показать сообщения:    

    Швейцар через торрент
    Скачать бесплатно Швейцар
    Швейцар скачать торрент
    Швейцар смотреть онлайн
    Cкачать фильм Швейцар бесплатно
    Швейцар скачать торрент в хорошем качестве
    Швейцар смотреть онлайн бесплатно в хорошем качестве


    Вы не можете начинать темы
    Вы не можете отвечать на сообщения
    Вы не можете редактировать свои сообщения
    Вы не можете удалять свои сообщения
    Вы не можете голосовать в опросах
    Вы не можете прикреплять файлы к сообщениям
    Вы можете скачивать файлы