Ссылка на приватное зеркало нашего сайта всего за 1$. Внимание количество ограничено!!!

2 сезон

iTunes

1 сезон

1

iTunes

iTunes

iTunes

1 сезон

RePack

30

ИГРА 18+

pack

ВАЖНО

!!Акция!!

Alien_RageХит недели

RePack

MK11
pack

Забери бонус

RePack

jed

!!Акция!!

Alien_Rage

RePack

fifa19

RePack

Assassins Creed: Odyssey

RePack

NEED FOR SPEED™ PAYBACK

4 сезон

9 сезон

Бесстыжие 9 сезон

Все сериалы

все сериалы на PB.wtf

RePack

FAR CRY 5
  

Спасибо, папа / Thank you, dad (Грач Кешишян ) [2014, комедия, WEB-DLRip] / Лицензия piratbit.pw

Спасибо, папа через торрент piratbit.pw

Размер: 1.37 GB | Добавлен: 5 лет 8 мес. назад | Торрент скачан:803 раза
Скачать  

12-02-2015 12:18 Спасибо, папа Скачать торрент  


Спасибо, папа / Thank you, dad


Информация:
Год выпуска:2014
Страна: Армения
Жанр:комедия
Продолжительность01:35:21
Перевод: Оригинальное (русское) [Лицензия]
Дополнительно: Английская речь Профессиональный многоголосный перевод
Режиссер:Грач Кешишян

В ролях:


Криста Донарго (Virgie), Луиза Гамбарян (Nushik), Майрануш Григорян (Manik), Дэвид Акопян (Abo), Левон Арутюнян (Smbat), Джордж Ховакимян (Garush), Джения Мкртумян (Siranush), Левон Мурадян (Major), Еро Мурян (Bob), Нарек Нерсисян (Galoyan), Микаел Погосян (Баргевос), Вероника Роделл (Silvi)

Описание:
В свой день рождения Вирджи, живущая в Нью-Йорке, получает неожиданный подарок - наследство в 50 миллионов долларов. Только по завещанию отца, которого она не видела больше 10 лет, ей надо выполнить одно условие: найти армянина с редчайшим именем Баргевос и выйти за него замуж. На все это ей дается только месяц. Чтобы встретить свое «счастье», Вирджи через несколько дней вылетает в Армению, где, как ей удалось выяснить, живет один-единственный Баргевос.

  • Мировая премьера:31 мая 2014

    Тех.Данные:
    Качество: WEB-DLRip
    Формат:AVI
    Видео кодек: XviD
    Аудио кодек:AC3
    Видео: XviD, 720x360 (2.000), 1850 kbps, 25 fps, 0,286 bpp
    Аудио: AC3 / 2.0 / 48 kHz / 192 kbps / 16 bit

    Код:

    General
    Complete name                            : D:\Торенты\Spasibo.papa.2014.O.WEBDLRip.avi
    Format                                   : AVI
    Format/Info                              : Audio Video Interleave
    File size                                : 1.37 GiB
    Duration                                 : 1h 35mn
    Overall bit rate                         : 2 053 Kbps
    Writing application                      : VirtualDubMod 1.5.10.3 | www.virtualdub-fr.org || (build 2550/release)
    Writing library                          : VirtualDubMod build 2550/release

    Video
    ID                                       : 0
    Format                                   : MPEG-4 Visual
    Format profile                           : Advanced Simple@L5
    Format settings, BVOP                    : 2
    Format settings, QPel                    : No
    Format settings, GMC                     : No warppoints
    Format settings, Matrix                  : Default (MPEG)
    Codec ID                                 : XVID
    Codec ID/Hint                            : XviD
    Duration                                 : 1h 35mn
    Bit rate                                 : 1 851 Kbps
    Width                                    : 720 pixels
    Height                                   : 360 pixels
    Display aspect ratio                     : 2.000
    Frame rate                               : 25.000 fps
    Color space                              : YUV
    Chroma subsampling                       : 4:2:0
    Bit depth                                : 8 bits
    Scan type                                : Progressive
    Compression mode                         : Lossy
    Bits/(Pixel*Frame)                       : 0.286
    Stream size                              : 1.23 GiB (90%)
    Writing library                          : XviD 1.2.1 (UTC 2008-12-04)

    Audio
    ID                                       : 1
    Format                                   : AC-3
    Format/Info                              : Audio Coding 3
    Mode extension                           : CM (complete main)
    Codec ID                                 : 2000
    Duration                                 : 1h 35mn
    Bit rate mode                            : Constant
    Bit rate                                 : 192 Kbps
    Channel(s)                               : 2 channels
    Channel positions                        : Front: L R
    Sampling rate                            : 48.0 KHz
    Bit depth                                : 16 bits
    Compression mode                         : Lossy
    Stream size                              : 131 MiB (9%)
    Alignment                                : Split accross interleaves
    Interleave, duration                     : 40 ms (1.00 video frame)
    Interleave, preload duration             : 500 ms

    Скриншоты:


    © Оформление by Ворон
    piratbit.pw



  • Скачать Спасибо, папа через торрент http://pic.kartinco.top/images/6/ordi9.jpg Скачать фильм Спасибо, папа через торрент бесплантно в хорошем качестве Год выпуска:2014✦ Страна: Армения✦ Жанр:комедия✦ Продолжительность01:35:21✦ Перевод: Оригинальное (русское) [Лицензия]✦ Дополнительно: ... 9.1 10 26
    Торрент: Зарегистрирован [2015-02-12 12:18] · скачан: 803 раз
    Статус: √ проверено
    Размер: 1.37 GB
    Как cкачать? Как скачать Спасибо, папа через торрент | qTorrent

    % Раздел Тема Автор DL S | L
    T Фильмы (WEB-DL 720p, 1080p) [ 3.62 GB ] Спасибо папа / Thank you dad [2014 WEB-DL 1080p / ] Ворон Скачать
    1 | 0

    28-11-2019 20:33  

    Отключить всю рекламу на сайте

    12-02-2015 19:13 Спасибо, папа Скачать торрент  

    Кто ни будь смотрел? как фильм?piratbit.pw



      Дорогой пользователь! Огромная просьба, поблагодарите релизера, оцените раздачу и оставьте свои комментарий, если Вы скачали Спасибо, папа через торрент бесплатно! Внесите свою лепту в развитие PiratBit!
      Комментировать посты могут только пользователи прошедшие не сложную регистрацию
      Показать сообщения:    

      Спасибо, папа через торрент
      Скачать бесплатно Спасибо, папа
      Спасибо, папа скачать торрент
      Спасибо, папа смотреть онлайн
      Cкачать фильм Спасибо, папа бесплатно
      Спасибо, папа скачать торрент в хорошем качестве
      Спасибо, папа смотреть онлайн бесплатно в хорошем качестве


      Вы не можете начинать темы
      Вы не можете отвечать на сообщения
      Вы не можете редактировать свои сообщения
      Вы не можете удалять свои сообщения
      Вы не можете голосовать в опросах
      Вы не можете прикреплять файлы к сообщениям
      Вы можете скачивать файлы