1 сезон

3 сезон

iTunes

1

iTunes

DUB Netflix

iTunes

13

1 сезон

RePack

30

Deluxe

pack

Легкие деньги

ВАЖНО

ИГРА 18+

pack

RePack

MK11

RePack

jed

RePack

fifa19

RePack

RDR2

RePack

NEED FOR SPEED™ PAYBACK

4 сезон

9 сезон

Бесстыжие 9 сезон

Все сериалы

все сериалы на PB.wtf

RePack

FAR CRY 5

Anonymous, доброй ночи, мы не успеваем до 1 числа собрать деньги на оплату серверов, помогите нам пожалуйста в это трудное время. В качестве благодарности мы отключим Вам всю рекламу на сайте (укажите свой ник в строку Ваше имя)!

×
  
Magnet ссылка

Домик на дереве / Treehouse (Майкл Г. Бартлетт ) [2014, ужасы, триллер, детектив, WEB-DLRip, Любительский (двухголосый) [den904, DeadSno] piratbit.pw

Домик на дереве через торрент piratbit.pw

Размер: 699 MB | Добавлен: 6 лет 4 мес. назад | Торрент скачан:159 раз
Скачать  

10-02-2015 14:57 Домик на дереве Скачать торрент  


Домик на дереве / Treehouse


Информация:
Год выпуска:2014
Страна: Великобритания, США
Жанр:ужасы, триллер, детектив
Продолжительность01:40:04
Перевод:Любительский (двухголосый) [den904, DeadSno]
Режиссер:Майкл Г. Бартлетт

В ролях:


Джонатан Майкл Траутмэнн (Killian), Дэна Мелани (Elizabeth), Клинт Джеймс (Killian's father), Дэниэл Фредрик (Crawford), Шеннон Кнопк (Marsha), Калеб Кокс (Tyler), Даррен Кеннеди (Officer Morgan), Чэнс Николс (Geminski), Мэллори Малибу Во (Betty, озвучка), Jake Gregory (Little Bob), Илэйн Дженкинс (Alicia), Nathan L. Henderson (Coach Reynolds)

Описание:
В небольшом городке начинают происходить похищения детей и подростков, останки обезображенных тел которых находят в лесу. Полиция вводит комендантский час, но тщетно, таинственного похитителя это не останавливает и он продолжает воплощать свои извращенные идеи в жизнь. Одной из жертв удается убежать и спрятаться в домике на дереве...

  • Мировая премьера:20 октября 2014

    Тех.Данные:
    Качество: WEB-DLRip
    Формат:AVI
    Видео кодек: XviD
    Аудио кодек:MP3
    Видео: XviD, 640x272 (2.35:1),838 kbps, 23,976 fps, 0,192 bpp
    Аудио: MP3 / 2.0 / 48 kHz / 128 kbps /

    Код:

    General
    Complete name                            : D:\Торенты\Treehouse.2014.WEBDLRip.700mb.avi
    Format                                   : AVI
    Format/Info                              : Audio Video Interleave
    File size                                : 699 MiB
    Duration                                 : 1h 40mn
    Overall bit rate                         : 976 Kbps
    Writing application                      : VirtualDubModRus 1.5.10.2 (build 2542/release)
    Writing library                          : VirtualDubMod build 2542/release

    Video
    ID                                       : 0
    Format                                   : MPEG-4 Visual
    Format profile                           : Advanced Simple@L5
    Format settings, BVOP                    : 2
    Format settings, QPel                    : No
    Format settings, GMC                     : No warppoints
    Format settings, Matrix                  : Default (H.263)
    Muxing mode                              : Packed bitstream
    Codec ID                                 : XVID
    Codec ID/Hint                            : XviD
    Duration                                 : 1h 40mn
    Bit rate                                 : 838Kbps
    Width                                    : 640 pixels
    Height                                   : 272 pixels
    Display aspect ratio                     : 2.35:1
    Frame rate                               : 23.976 fps
    Color space                              : YUV
    Chroma subsampling                       : 4:2:0
    Bit depth                                : 8 bits
    Scan type                                : Progressive
    Compression mode                         : Lossy
    Bits/(Pixel*Frame)                       : 0.192
    Stream size                              : 573 MiB (82%)
    Writing library                          : XviD 65

    Audio
    ID                                       : 1
    Format                                   : MPEG Audio
    Format version                           : Version 1
    Format profile                           : Layer 3
    Codec ID                                 : 55
    Codec ID/Hint                            : MP3
    Duration                                 : 1h 40mn
    Bit rate mode                            : Constant
    Bit rate                                 : 128 Kbps
    Channel(s)                               : 2 channels
    Sampling rate                            : 48.0 KHz
    Compression mode                         : Lossy
    Stream size                              : 91.6 MiB (13%)
    Alignment                                : Aligned on interleaves
    Writing library                          : LAME3.99r
    Encoding settings                        : -m s -V 4 -q 2 -lowpass 17 -b 128

    Скриншоты:


    © Оформление by Ворон
    piratbit.pw



  • Скачать Домик на дереве через торрент https://pic1.kartinco.top/images/61/ordi9.jpg Скачать фильм Домик на дереве через торрент бесплантно в хорошем качестве Год выпуска:2014✦ Страна: Великобритания, США✦ Жанр:ужасы, триллер, детектив✦ Продолжительность01:40:04✦ Перевод: (двухголосый) ... 10 10 3
    Торрент: Зарегистрирован [2015-02-10 14:57] · скачан: 159 раз
    Статус: T временная
    Размер: 699 MB
    Как cкачать? Как скачать Домик на дереве через торрент | UTorrent

    % Раздел Тема Автор DL S | L
    T Фильмы 2014 (Звук TS, Cam, VO, DVO) [ 1.31 GB ] Домик на дереве / Treehouse [2014 HDRip Любительский [den904 DeadSno] Ворон Скачать
    1 | 0

    28-11-2019 20:33  

    Отключить всю рекламу на сайте

      Дорогой пользователь! Огромная просьба, поблагодарите релизера, оцените раздачу и оставьте свои комментарий, если Вы скачали Домик на дереве через торрент бесплатно! Внесите свою лепту в развитие PiratBit!
      Комментировать посты могут только пользователи прошедшие не сложную регистрацию
      Показать сообщения:    

      Домик на дереве через торрент
      Скачать бесплатно Домик на дереве
      Домик на дереве скачать торрент
      Домик на дереве смотреть онлайн
      Cкачать фильм Домик на дереве бесплатно
      Домик на дереве скачать торрент в хорошем качестве
      Домик на дереве смотреть онлайн бесплатно в хорошем качестве


      Вы не можете начинать темы
      Вы не можете отвечать на сообщения
      Вы не можете редактировать свои сообщения
      Вы не можете удалять свои сообщения
      Вы не можете голосовать в опросах
      Вы не можете прикреплять файлы к сообщениям
      Вы можете скачивать файлы