1 сезон

3 сезон

iTunes

1

iTunes

DUB Netflix

iTunes

13

1 сезон

RePack

30

Deluxe

pack

Легкие деньги

ВАЖНО

ИГРА 18+

pack

RePack

MK11

RePack

jed

RePack

fifa19

RePack

RDR2

RePack

NEED FOR SPEED™ PAYBACK

4 сезон

9 сезон

Бесстыжие 9 сезон

Все сериалы

все сериалы на PB.wtf

RePack

FAR CRY 5

Anonymous, добрый вечер, мы не успеваем до 1 числа собрать деньги на оплату серверов, помогите нам пожалуйста в это трудное время. В качестве благодарности мы отключим Вам всю рекламу на сайте (укажите свой ник в строку Ваше имя)!

×
  
Magnet ссылка

Октябрьский шторм / October Gale (Руба Надда ) [2014, триллер, драма, мелодрама, WEB-DLRip, Любительский (одноголосый) [R.A.I.M.] piratbit.pw

Октябрьский шторм через торрент piratbit.pw

Размер: 1.44 GB | Добавлен: 6 лет 4 мес. назад | Торрент скачан:148 раз
Скачать  

08-02-2015 13:08 Октябрьский шторм Скачать торрент  


Октябрьский шторм / October Gale


Информация:
Год выпуска:2014
Страна: Канада
Жанр:триллер, драма, мелодрама
Продолжительность01:31:07
Перевод:Любительский (одноголосый) [R.A.I.M.]
Режиссер:Руба Надда

В ролях:


Патришия Кларксон (Helen Matthews), Скотт Спидман (William), Тим Рот (Tom), Каллум Кит Ренни (James), Эйдан Дивайн (Al tessier), Билли Маклеллан (Edward), Эрик Мердок (Henry)

Описание:
Женщина-врач обнаруживает у себя в коттедже, расположенном на изолированном от материка острове, молодого мужчину с огнестрельным ранением. Оказав ему помощь, она тем самым подвергает собственную жизнь опасности, ведь убийца намерен довести начатое до конца, и даже шторм не способен его остановить.


Тех.Данные:
Качество: WEB-DLRip
Формат:AVI
Видео кодек: XviD
Аудио кодек:AC3
Видео: XviD, 720x304 (2.35:1), 1799 kbps, 23,976 fps, 0,326 bpp
Аудио №1: AC3 / 2.0 / 48 kHz / 192 kbps / Любительский (одноголосый) [R.A.I.M.]
Аудио №2: AC3 / 2.0 / 48 kHz / 256 kbps / English

Код:

General
Complete name                            : D:\Торенты\October.Gale.2014.L1.WEB-DLRip.1400MB.avi
Format                                   : AVI
Format/Info                              : Audio Video Interleave
File size                                : 1.44 GiB
Duration                                 : 1h 31mn
Overall bit rate                         : 2 261 Kbps
Writing application                      : VirtualDubMod 1.5.10.2 (build 2540/release)
Writing library                          : VirtualDubMod build 2540/release

Video
ID                                       : 0
Format                                   : MPEG-4 Visual
Format profile                           : Advanced Simple@L5
Format settings, BVOP                    : 2
Format settings, QPel                    : No
Format settings, GMC                     : No warppoints
Format settings, Matrix                  : Default (H.263)
Muxing mode                              : Packed bitstream
Codec ID                                 : XVID
Codec ID/Hint                            : XviD
Duration                                 : 1h 31mn
Bit rate                                 : 1 799 Kbps
Width                                    : 720 pixels
Height                                   : 304 pixels
Display aspect ratio                     : 2.35:1
Frame rate                               : 23.976 fps
Color space                              : YUV
Chroma subsampling                       : 4:2:0
Bit depth                                : 8 bits
Scan type                                : Progressive
Compression mode                         : Lossy
Bits/(Pixel*Frame)                       : 0.326
Stream size                              : 1.09 GiB (76%)
Writing library                          : XviD 64

Audio #1
ID                                       : 1
Format                                   : AC-3
Format/Info                              : Audio Coding 3
Mode extension                           : CM (complete main)
Codec ID                                 : 2000
Duration                                 : 1h 31mn
Bit rate mode                            : Constant
Bit rate                                 : 192 Kbps
Channel(s)                               : 2 channels
Channel positions                        : Front: L R
Sampling rate                            : 48.0 KHz
Bit depth                                : 16 bits
Compression mode                         : Lossy
Stream size                              : 125 MiB (8%)
Alignment                                : Split accross interleaves

Audio #2
ID                                       : 2
Format                                   : AC-3
Format/Info                              : Audio Coding 3
Mode extension                           : CM (complete main)
Codec ID                                 : 2000
Duration                                 : 1h 31mn
Bit rate mode                            : Constant
Bit rate                                 : 256 Kbps
Channel(s)                               : 2 channels
Channel positions                        : Front: L R
Sampling rate                            : 48.0 KHz
Bit depth                                : 16 bits
Compression mode                         : Lossy
Stream size                              : 167 MiB (11%)
Alignment                                : Split accross interleaves

Скриншоты:


© Оформление by Ворон
piratbit.pw



Скачать Октябрьский шторм через торрент https://pic1.kartinco.top/images/61/ordi9.jpg Скачать фильм Октябрьский шторм через торрент бесплантно в хорошем качестве Год выпуска:2014 Страна: Канада Жанр:триллер, драма, мелодрама Продолжительность01:31:07 Перевод: (одноголосый) [R.A.I.M.] ... 10 10 3
Торрент: Зарегистрирован [2015-02-08 13:08] · скачан: 148 раз
Статус: T временная
Размер: 1.44 GB
Как cкачать? Как скачать Октябрьский шторм через торрент | UTorrent

% Раздел Тема Автор DL S | L
Фильмы 2014 (Звук TS, Cam, VO, DVO) [ 1.42 GB ] Октябрьский шторм / October Gale [2014 BDRip Любительский [Victory-Films] Twi7ter Скачать
1 | 0

28-11-2019 20:33  

Отключить всю рекламу на сайте

    Дорогой пользователь! Огромная просьба, поблагодарите релизера, оцените раздачу и оставьте свои комментарий, если Вы скачали Октябрьский шторм через торрент бесплатно! Внесите свою лепту в развитие PiratBit!
    Комментировать посты могут только пользователи прошедшие не сложную регистрацию
    Показать сообщения:    

    Октябрьский шторм через торрент
    Скачать бесплатно Октябрьский шторм
    Октябрьский шторм скачать торрент
    Октябрьский шторм смотреть онлайн
    Cкачать фильм Октябрьский шторм бесплатно
    Октябрьский шторм скачать торрент в хорошем качестве
    Октябрьский шторм смотреть онлайн бесплатно в хорошем качестве


    Вы не можете начинать темы
    Вы не можете отвечать на сообщения
    Вы не можете редактировать свои сообщения
    Вы не можете удалять свои сообщения
    Вы не можете голосовать в опросах
    Вы не можете прикреплять файлы к сообщениям
    Вы можете скачивать файлы