1 сезон

3 сезон

iTunes

1

iTunes

DUB Netflix

iTunes

13

1 сезон

RePack

30

Deluxe

pack

Легкие деньги

ВАЖНО

ИГРА 18+

pack

RePack

MK11

RePack

jed

RePack

fifa19

RePack

RDR2

RePack

NEED FOR SPEED™ PAYBACK

4 сезон

9 сезон

Бесстыжие 9 сезон

Все сериалы

все сериалы на PB.wtf

RePack

FAR CRY 5

Anonymous, доброй ночи, мы не успеваем до 1 числа собрать деньги на оплату серверов, помогите нам пожалуйста в это трудное время. В качестве благодарности мы отключим Вам всю рекламу на сайте (укажите свой ник в строку Ваше имя)!

×
  
Magnet ссылка

Варшавское восстание / Powstanie Warszawskie (Ян Комаса) [2014 г., Исторический, военный, DVDRip] VO (Professor) piratbit.pw

Варшавское восстание через торрент piratbit.pw

Размер: 1.45 GB | Добавлен: 6 лет 4 мес. назад | Торрент скачан:131 раз
Скачать  

06-02-2015 19:23 Варшавское восстание Скачать торрент  

Варшавское восстание / Powstanie WarszawskieГод выпуска: 2014
Страна:Польша
Жанр: Исторический, военный
Продолжительность: 01:22:48
Перевод: Любительский одноголосый
Перевод: Любительский одноголосый (Павел Морозов aka PashaUp), перевод Professor

Режиссер: Ян Комаса
Продюссер: Andrzej Besztak, Гжегож Ольковски
Сценарий: Джоэнна Павлуськевич

Премьера в мире: 9 мая 2014 В ролях: Михал Журавский, Мацей Навроцкий, Мирослав Зброевич, Агнешка Куниковская, Ева Каня-Гроховская, Яцек Чиж

Описание: Первый в мире художественный фильм, полностью состоящий из документальных видеоматериалов. Два брата, Карел и Витек, ведут кинохронику Варшавского восстания 1944 года...

Качество: DVDRip
Формат: AVI
Видео кодек: XviD
Аудио кодек: AC3
Видео: Xvid 720x400, 25fps, 2051kbps
Аудио: Dolby AC3, 48000Hz, 6ch, 448kbps
Релиз от: Henderson19

Скриншоты:
скриншот  скриншот  скриншот  скриншот  




General
Complete name : E:\01 02 2014\Powstanie.Warszawskie (2014).avi
Format : AVI
Format/Info : Audio Video Interleave
File size : 1.45 GiB
Duration : 1h 22mn
Overall bit rate : 2 509 Kbps
Writing application : VirtualDubMod 1.5.10.2 (build 2540/release)
Writing library : VirtualDubMod build 2540/release

Video
ID : 0
Format : MPEG-4 Visual
Format profile : Advanced Simple@L5
Format settings, BVOP : 2
Format settings, QPel : No
Format settings, GMC : No warppoints
Format settings, Matrix : Default (H.263)
Codec ID : XVID
Codec ID/Hint : XviD
Duration : 1h 22mn
Bit rate : 2 052 Kbps
Width : 720 pixels
Height : 400 pixels
Display aspect ratio : 16:9
Frame rate : 25.000 fps
Color space : YUV
Chroma subsampling : 4:2:0
Bit depth : 8 bits
Scan type : Progressive
Compression mode : Lossy
Bits/(Pixel*Frame) : 0.285
Stream size : 1.19 GiB (82%)
Writing library : XviD 65

Audio
ID : 1
Format : AC-3
Format/Info : Audio Coding 3
Mode extension : CM (complete main)
Format settings, Endianness : Big
Codec ID : 2000
Duration : 1h 22mn
Bit rate mode : Constant
Bit rate : 448 Kbps
Channel(s) : 6 channels
Channel positions : Front: L C R, Side: L R, LFE
Sampling rate : 48.0 KHz
Bit depth : 16 bits
Compression mode : Lossy
Stream size : 265 MiB (18%)
Alignment : Split accross interleaves
Interleave, duration : 40 ms (1.00 video frame)
Interleave, preload duration : 500 ms

piratbit.pw



Скачать Варшавское восстание через торрент https://pic1.kartinco.top/images/81/thboj.jpg Скачать фильм Варшавское восстание через торрент бесплантно в хорошем качестве Описание: Первый в мире художественный фильм, полностью состоящий из документальных видеоматериалов. Два брата, Карел и Витек, ведут ... 7.5 10 12
Торрент: Зарегистрирован [2015-02-06 19:23] · скачан: 131 раз
Статус: T временная
Размер: 1.45 GB
Как cкачать? Как скачать Варшавское восстание через торрент | UTorrent

28-11-2019 20:33  

Отключить всю рекламу на сайте

08-02-2015 10:51 Варшавское восстание Скачать торрент  

Перевод не в тему!piratbit.pw



    Дорогой пользователь! Огромная просьба, поблагодарите релизера, оцените раздачу и оставьте свои комментарий, если Вы скачали Варшавское восстание через торрент бесплатно! Внесите свою лепту в развитие PiratBit!
    Комментировать посты могут только пользователи прошедшие не сложную регистрацию
    Показать сообщения:    

    Варшавское восстание через торрент
    Скачать бесплатно Варшавское восстание
    Варшавское восстание скачать торрент
    Варшавское восстание смотреть онлайн
    Cкачать фильм Варшавское восстание бесплатно
    Варшавское восстание скачать торрент в хорошем качестве
    Варшавское восстание смотреть онлайн бесплатно в хорошем качестве


    Вы не можете начинать темы
    Вы не можете отвечать на сообщения
    Вы не можете редактировать свои сообщения
    Вы не можете удалять свои сообщения
    Вы не можете голосовать в опросах
    Вы не можете прикреплять файлы к сообщениям
    Вы можете скачивать файлы