Ссылка на приватное зеркало нашего сайта всего за 1$. Внимание количество ограничено!!!

2 сезон

iTunes

1 сезон

1

iTunes

iTunes

iTunes

1 сезон

RePack

30

ИГРА 18+

pack

ВАЖНО

!!Акция!!

Alien_RageХит недели

RePack

MK11
pack

Забери бонус

RePack

jed

!!Акция!!

Alien_Rage

RePack

fifa19

RePack

Assassins Creed: Odyssey

RePack

NEED FOR SPEED™ PAYBACK

4 сезон

9 сезон

Бесстыжие 9 сезон

Все сериалы

все сериалы на PB.wtf

RePack

FAR CRY 5
  

Ёлки лохматые (Максим Свешников) [2014, Россия, семейный, комедия, HDRip-AVC] От R.G. PiratFilms piratbit.pw

Ёлки лохматые через торрент piratbit.pw

Размер: 1.19 GB | Добавлен: 5 лет 8 мес. назад | Торрент скачан:495 раз
Скачать  

04-02-2015 14:54 Ёлки лохматые Скачать торрент  

Ёлки лохматые
«Всё как у людей!»


Год выпуска: 2014
Страна: Россия
Жанр: семейный, комедия

Продолжительность: 01:25:48
Перевод: Не требуется
Субтитры: Нет
Режиссер: Максим Свешников
В ролях:

Андрей Мерзликин (Леха), Ян Цапник (Макар), Лера Стреляева (Настя), Галина Коньшина (бабушка), Фемме Фатале («Йоко»), Айса Энимал Арт («Пират»), Пётр Фёдоров (папа), Анна Чиповская (мама), Виктор Васильев (администратор отеля для собак), Андрей Федорцов (водитель автобуса), Алексей Васильев (жующий полицейский), Михаил Трясоруков (полицейский)
Описание:
Хозяйка Пирата и Йоко - самарская девочка Настя - улетает с бабушкой в Питер, оставляя питомцев в отеле для собак. Расценив это как предательство, животные сбегают домой, где можно наконец почувствовать себя человеком - есть сколько угодно, играть без устали и спать на хозяйской кровати. Но райский отдых влюбленных прерывают два незадачливых воришки, которых ждет нечеловеческий прием...
Мировая премьера: 29 января 2015
    Качество: HDRip-AVC (исх. BDRip 1080р)
    Формат: MKV
    Видео кодек: AVC
    Аудио кодек:AC3
    Видео: AVC, 1024x424 (2.40:1), 1543 kbps, 24 fps, 0,148 bpp
    Аудио: русский / AC3 / 5.1 / 48 kHz / 448 kbps / 16 bit ||


Код:

---[Information] [04.02.2015 11:49:24] x264 [info]: frame I:1238  Avg QP:15.13  size: 60916  PSNR Mean Y:48.20 U:50.36 V:50.99 Avg:48.86 Global:48.49
---[Information] [04.02.2015 11:49:24] x264 [info]: frame P:30980 Avg QP:18.61  size: 15802  PSNR Mean Y:45.89 U:48.68 V:49.24 Avg:46.66 Global:46.13
---[Information] [04.02.2015 11:49:24] x264 [info]: frame B:91344 Avg QP:20.79  size:  4683  PSNR Mean Y:45.28 U:48.45 V:49.06 Avg:46.13 Global:45.53
---[Information] [04.02.2015 11:49:24] x264 [info]: consecutive B-frames:  2.9%  3.8%  8.8% 50.2% 12.7% 12.5%  3.8%  3.9%  0.7%  0.4%  0.3%

Код:

General
Unique ID                                : 171100515746651757711140745705387078551 (0x80B8C2BBC55E5BB8B32C8E259E1E3397)
Complete name                            : D:\рипы От R.G. PiratFilms\Elk1.L0hmatye.2014.HDRip-AVC.by.White Smoke.R.G.PiratFilms.mkv
Format                                   : Matroska
Format version                           : Version 4 / Version 2
File size                                : 1.19 GiB
Duration                                 : 1h 25mn
Overall bit rate                         : 1 992 Kbps
Movie name                               : Elk1.L0hmatye.2014.HDRip-AVC.by.White Smoke.R.G.PiratFilms.mkv
Encoded date                             : UTC 2015-02-04 13:16:50
Writing application                      : mkvmerge v6.8.0 ('Theme for Great Cities') 64bit built on Mar  2 2014 21:34:26
Writing library                          : libebml v1.3.0 + libmatroska v1.4.1

Video
ID                                       : 1
Format                                   : AVC
Format/Info                              : Advanced Video Codec
Format profile                           : High@L4.1
Format settings, CABAC                   : Yes
Format settings, ReFrames                : 8 frames
Codec ID                                 : V_MPEG4/ISO/AVC
Duration                                 : 1h 25mn
Bit rate                                 : 1 543 Kbps
Width                                    : 1 024 pixels
Height                                   : 424 pixels
Display aspect ratio                     : 2.40:1
Frame rate                               : 24.000 fps
Color space                              : YUV
Chroma subsampling                       : 4:2:0
Bit depth                                : 8 bits
Scan type                                : Progressive
Bits/(Pixel*Frame)                       : 0.148
Stream size                              : 923 MiB (76%)
Writing library                          : x264 core 142 r2431 ac76440
Encoding settings                        : cabac=1 / ref=8 / deblock=1:-3:-3 / analyse=0x3:0x113 / me=umh / subme=9 / psy=1 / psy_rd=1.00:0.00 / mixed_ref=1 / me_range=32 / chroma_me=1 / trellis=1 / 8x8dct=1 / cqm=0 / deadzone=21,11 / fast_pskip=1 / chroma_qp_offset=-2 / threads=12 / lookahead_threads=3 / sliced_threads=0 / nr=0 / decimate=1 / interlaced=0 / bluray_compat=0 / constrained_intra=0 / bframes=10 / b_pyramid=2 / b_adapt=2 / b_bias=10 / direct=1 / weightb=0 / open_gop=0 / weightp=2 / keyint=240 / keyint_min=24 / scenecut=40 / intra_refresh=0 / rc_lookahead=40 / rc=2pass / mbtree=1 / bitrate=1543 / ratetol=1.0 / qcomp=0.65 / qpmin=0 / qpmax=69 / qpstep=4 / cplxblur=20.0 / qblur=0.5 / ip_ratio=1.40 / aq=1:1.00
Language                                 : English
Default                                  : Yes
Forced                                   : No

Audio
ID                                       : 2
Format                                   : AC-3
Format/Info                              : Audio Coding 3
Mode extension                           : CM (complete main)
Codec ID                                 : A_AC3
Duration                                 : 1h 25mn
Bit rate mode                            : Constant
Bit rate                                 : 448 Kbps
Channel(s)                               : 6 channels
Channel positions                        : Front: L C R, Side: L R, LFE
Sampling rate                            : 48.0 KHz
Bit depth                                : 16 bits
Compression mode                         : Lossy
Stream size                              : 275 MiB (22%)
Title                                    : Elk1.L0hmatye.2014.O.BDRip.1080p.ELEKTRI4KA [3imeMachi9e]
Language                                 : Russian
Default                                  : Yes
Forced                                   : No


Скриншоты:

За Обложку к релизу спасибо XLASER



piratbit.pw



Скачать Ёлки лохматые через торрент http://pic1.kartinco.top/images/9/1a142.jpg Скачать фильм Ёлки лохматые через торрент бесплантно в хорошем качестве Описание: Хозяйка Пирата и Йоко - самарская девочка Настя - улетает с бабушкой в Питер, оставляя питомцев в отеле для собак. Расценив это ... 9.3 10 31
Info! Золотая раздача, скачанное не засчитывается.
Торрент: Зарегистрирован [2015-02-04 18:22] · скачан: 495 раз
Статус: √ проверено
Размер: 1.19 GB
Как cкачать? Как скачать Ёлки лохматые через торрент | qTorrent

28-11-2019 20:33  

Отключить всю рекламу на сайте

04-02-2015 15:03 Ёлки лохматые Скачать торрент  

Спасибо за скорость!piratbit.pw



04-02-2015 19:12 Ёлки лохматые Скачать торрент  

Фильм класс очень понравился, автору спасибо.piratbit.pw



    Дорогой пользователь! Огромная просьба, поблагодарите релизера, оцените раздачу и оставьте свои комментарий, если Вы скачали Ёлки лохматые через торрент бесплатно! Внесите свою лепту в развитие PiratBit!
    Комментировать посты могут только пользователи прошедшие не сложную регистрацию
    Показать сообщения:    

    Ёлки лохматые через торрент
    Скачать бесплатно Ёлки лохматые
    Ёлки лохматые скачать торрент
    Ёлки лохматые смотреть онлайн
    Cкачать фильм Ёлки лохматые бесплатно
    Ёлки лохматые скачать торрент в хорошем качестве
    Ёлки лохматые смотреть онлайн бесплатно в хорошем качестве


    Вы не можете начинать темы
    Вы не можете отвечать на сообщения
    Вы не можете редактировать свои сообщения
    Вы не можете удалять свои сообщения
    Вы не можете голосовать в опросах
    Вы не можете прикреплять файлы к сообщениям
    Вы можете скачивать файлы