Ссылка на приватное зеркало всего за 1$. Внимание количество ограничено!!!

OK

1+1

iTunes

мы

OK

1

WEB-DLRip

Джокер

Пифагор

Ведьмак / The Witcher сериал

Лицензия

ПШазам

ОК

Оно 2

iTunes

30
pack

Вам бонус

ВАЖНО

!!Акция!!

Alien_RageХит недели

RePack

Resident Evil 21

ИГРА 18+

pack

RePack

jed

!!Акция!!

Alien_Rage

RePack

fifa19

RePack

Assassins Creed: Odyssey

RePack

NEED FOR SPEED™ PAYBACK

4 сезон

9 сезон

Бесстыжие 9 сезон

Все сериалы

все сериалы на PB.wtf

RePack

FAR CRY 5
  

Приказано забыть (Пепел) (Хусейн Эркенов ) [2014, драма, история, DVDScreener] piratbit.pw

Приказано забыть через торрент piratbit.pw

Размер: 1.45 GB | Добавлен: 4 года 11 мес. назад | Торрент скачан:1049 раз
Скачать  

02-02-2015 18:22 Приказано забыть Скачать торрент  


Приказано забыть (Пепел)


Информация:
Год выпуска:2014
Страна: Россия
Жанр:драма, история
Продолжительность01:27:14
Перевод:Не требуется
Режиссер:Хусейн Эркенов

В ролях:


Хеда Ахмадова (Седа), Шамхан Митраев (Дауд), Мовсар Атаев (председатель сельсовета), Роза Хайруллина, Роман Кузнеченко, Руслан Коканаев (друг Дауда), Дагун Омаев, Муса Дудаев, Зарема Улабаева, Хава Ахмадова, Санухат Хакишева, Марха Гайрабекова

Описание:
1944 год. Во время депортации народов Северного Кавказа, предпринятой по приказу Иосифа Сталина, многие молодые чеченцы и ингуши бежали в горы. Среди них – юноша Дауд и девушка по имени Седа. Но опасаясь за судьбу родных, молодые люди решают вернуться обратно. Они становятся свидетелями чудовищной трагедии, когда несколько сотен деревенских жителей, отказавшихся покидать родную землю, были заживо сожжены войсками НКВД.


Тех.Данные:
Качество: DVDScreener
Формат:AVI
Видео кодек: DivX 5
Аудио кодек:AC3
Видео: DivX 5, 720x320 (2.25:1), 2171 kbps, 25 fps, 0,361 bpp
Аудио: AC3 / 2.0 / 48 kHz / 192 kbps / 16 bit

Код:

General
Complete name                            : D:\Торенты\Приказано забыть.avi
Format                                   : AVI
Format/Info                              : Audio Video Interleave
File size                                : 1.45 GiB
Duration                                 : 1h 27mn
Overall bit rate                         : 2 373 Kbps
Writing application                      : VirtualDubMod 1.5.10.3 | www.virtualdub-fr.org || (build 2550/release)
Writing library                          : VirtualDubMod build 2550/release

Video
ID                                       : 0
Format                                   : MPEG-4 Visual
Format profile                           : Advanced Simple@L5
Format settings, BVOP                    : 2
Format settings, QPel                    : No
Format settings, GMC                     : No warppoints
Format settings, Matrix                  : Default (MPEG)
Codec ID                                 : DX50
Codec ID/Hint                            : DivX 5
Duration                                 : 1h 27mn
Bit rate                                 : 2171 Kbps
Width                                    : 720 pixels
Height                                   : 320 pixels
Display aspect ratio                     : 2.25:1
Frame rate                               : 25.000 fps
Color space                              : YUV
Chroma subsampling                       : 4:2:0
Bit depth                                : 8 bits
Scan type                                : Progressive
Compression mode                         : Lossy
Bits/(Pixel*Frame)                       : 0.361
Stream size                              : 1.27 GiB (88%)
Writing library                          : XviD 1.2.1 (UTC 2008-12-04)

Audio
ID                                       : 1
Format                                   : AC-3
Format/Info                              : Audio Coding 3
Mode extension                           : CM (complete main)
Codec ID                                 : 2000
Duration                                 : 1h 27mn
Bit rate mode                            : Constant
Bit rate                                 : 192 Kbps
Channel(s)                               : 2 channels
Channel positions                        : Front: L R
Sampling rate                            : 48.0 KHz
Bit depth                                : 16 bits
Compression mode                         : Lossy
Stream size                              : 120 MiB (8%)
Alignment                                : Split accross interleaves

Руслан Коканаев написал, что получил официальное письмо от Минкульта РФ с мотивировкой отказа в выдаче прокатного удостоверения к фильму «Приказано забыть».

В письме В.Н. Тельнов директор Департамента кинематографии сообщает, что в архивах НКВД нет данных о массовом сожжении людей в горном ауле Хайбах Чечено-Ингушской АССР. В связи, с чем события в селении Хайбах считаются исторической фальшивкой.

Запрещенный министерством культуры России фильм "Приказано забыть" покажут на ММКФ

Техническая (незавершенная) версия фильма. В данной версии фильма, не все диалоги, не откорректирован как положено цвет, не откорректирована музыка и титры.
Скриншоты:


© Оформление by Ворон
piratbit.pw



Скачать Приказано забыть через торрент http://pic.kartinco.top/images/6/ordi9.jpg Скачать фильм Приказано забыть через торрент бесплантно в хорошем качестве Год выпуска:2014 Страна: Россия Жанр:драма, история Продолжительность01:27:14 Перевод:Не требуется Режиссер:Хусейн ... 7.3 10 35
Info! Серебряная раздача, засчитывается только 50% скачанного.
Торрент: Зарегистрирован [2015-02-02 18:22] · скачан: 1 049 раз
Статус: T временная
Размер: 1.45 GB
Как cкачать? Как скачать Приказано забыть через торрент | qTorrent



Последний раз редактировалось: Ворон (2015-02-02 18:52), всего редактировалось 2 раз(а)

28-11-2019 20:33  

Отключить всю рекламу на сайте

02-02-2015 18:36 Приказано забыть Скачать торрент  

семпл есть ?piratbit.pw



02-02-2015 20:08 Приказано забыть Скачать торрент  

Даже не знаю как откомментировать сей бред.piratbit.pw



02-02-2015 20:31 Приказано забыть Скачать торрент  

exomir, о!!!!!!!! доказательства преступлений кровавой гэбни просто шикарны!) я в своё время читал и ржал в голос) бред исполненный в художественном стиле, а ля "ну мы по правде сказать всё инсценировали и сочинили и никаких доказательств у нас нет, но так всё и було! мамой клянусь"piratbit.pw



03-02-2015 12:43 Приказано забыть Скачать торрент  

piratbit.pw



03-02-2015 12:57 Приказано забыть Скачать торрент  

Минкульт запретило показ в России этого фильма. sarcasticpiratbit.pw



    Дорогой пользователь! Огромная просьба, поблагодарите релизера, оцените раздачу и оставьте свои комментарий, если Вы скачали Приказано забыть через торрент бесплатно! Внесите свою лепту в развитие PiratBit!
    Комментировать посты могут только пользователи прошедшие не сложную регистрацию
    Показать сообщения:    

    Приказано забыть через торрент
    Скачать бесплатно Приказано забыть
    Приказано забыть скачать торрент
    Приказано забыть смотреть онлайн
    Cкачать фильм Приказано забыть бесплатно
    Приказано забыть скачать торрент в хорошем качестве
    Приказано забыть смотреть онлайн бесплатно в хорошем качестве


    Вы не можете начинать темы
    Вы не можете отвечать на сообщения
    Вы не можете редактировать свои сообщения
    Вы не можете удалять свои сообщения
    Вы не можете голосовать в опросах
    Вы не можете прикреплять файлы к сообщениям
    Вы можете скачивать файлы