1 сезон

3 сезон

iTunes

1

iTunes

DUB Netflix

iTunes

13

1 сезон

RePack

30

Deluxe

pack

Легкие деньги

ВАЖНО

ИГРА 18+

pack

RePack

MK11

RePack

jed

RePack

fifa19

RePack

RDR2

RePack

NEED FOR SPEED™ PAYBACK

4 сезон

9 сезон

Бесстыжие 9 сезон

Все сериалы

все сериалы на PB.wtf

RePack

FAR CRY 5

Anonymous, добрый вечер, мы не успеваем до 1 числа собрать деньги на оплату серверов, помогите нам пожалуйста в это трудное время. В качестве благодарности мы отключим Вам всю рекламу на сайте (укажите свой ник в строку Ваше имя)!

×
  
Magnet ссылка

Выжить в Арктике / Operasjon Arktis (Грете Бё-Воль)[2014, Семейный, приключения, HDRip] DVO [МЕГАПЫХАРЬ и Элис] piratbit.pw

Выжить в Арктике через торрент piratbit.pw

Размер: 1.23 GB | Добавлен: 6 лет 4 мес. назад | Торрент скачан:192 раза
Скачать  

02-02-2015 16:35 Выжить в Арктике Скачать торрент  


Выжить в Арктике / Operasjon Arktis (Operation Arctic)


Информация:
Год выпуска:2014
Страна: Норвегия
Жанр:семейный
Продолжительность01:30:39
Перевод:Любительский (двухголосый)(МЕГАПЫХАРЬ и Элис)

В ролях:


Kaisa Gurine Antonsen (Julia), Ларс Аренц-Хансен (Oberst Holm), Николай Клеве Брош (Far), Ida Leonora Valestrand Eike (Ida), Leonard Valestrand Eike (Sindre), Кристофер Хивью (Fangstmann), Пер Кьерштад Андерсен (Myrmo), Иви Кассет Ростен (Hendriksen), Лине Верндаль (Mor)

Описание:
Трое детей — 13-летняя Юлия вместе с сестрой и братом оказались во льдах суровой Арктики неподалеку от Шпицбергена. Им предстоит бороться с непогодой, спасаться от белых медведей и искать пропитание. Современная история о робинзонах посреди величественной и морозно опасной природы.


Тех.Данные:
Качество: HDRip
Формат:AVI
Видео кодек: DivX 4
Аудио кодек:AC3
Видео: DivX 4, 720x304 (2.35:1), 1661 kbps, 24 fps, 0,316 bpp
Аудио: AC3 / 2.0 / 48 kHz / 192 kbps / 16 bit

Код:

General
Complete name                            : D:\Торенты\Operation.Arctic.2014.HDRip.avi
Format                                   : AVI
Format/Info                              : Audio Video Interleave
File size                                : 1.23 GiB
Duration                                 : 1h 30mn
Overall bit rate                         : 1 939 Kbps
Writing application                      : VirtualDubMod 1.5.10.3 | www.virtualdub-fr.org || (build 2550/release)
Writing library                          : VirtualDubMod build 2550/release

Video
ID                                       : 0
Format                                   : MPEG-4 Visual
Format profile                           : Simple@L1
Format settings, BVOP                    : No
Format settings, QPel                    : No
Format settings, GMC                     : No warppoints
Format settings, Matrix                  : Default (H.263)
Codec ID                                 : DIVX
Codec ID/Info                            : Project Mayo
Codec ID/Hint                            : DivX 4
Duration                                 : 1h 30mn
Bit rate                                 : 1 661 Kbps
Width                                    : 720 pixels
Height                                   : 304 pixels
Display aspect ratio                     : 2.35:1
Frame rate                               : 24.000 fps
Color space                              : YUV
Chroma subsampling                       : 4:2:0
Bit depth                                : 8 bits
Scan type                                : Progressive
Compression mode                         : Lossy
Bits/(Pixel*Frame)                       : 0.316
Stream size                              : 1.05 GiB (86%)
Writing library                          : Lavc53.14.0

Audio
ID                                       : 1
Format                                   : AC-3
Format/Info                              : Audio Coding 3
Mode extension                           : CM (complete main)
Codec ID                                 : 2000
Duration                                 : 1h 30mn
Bit rate mode                            : Constant
Bit rate                                 : 192 Kbps
Channel(s)                               : 2 channels
Channel positions                        : Front: L R
Sampling rate                            : 48.0 KHz
Bit depth                                : 16 bits
Compression mode                         : Lossy
Stream size                              : 125 MiB (10%)
Alignment                                : Split accross interleaves

Скриншоты:


© Оформление by Ворон
piratbit.pw



Скачать Выжить в Арктике через торрент https://pic1.kartinco.top/images/61/ordi9.jpg Скачать фильм Выжить в Арктике через торрент бесплантно в хорошем качестве Год выпуска:2014 Страна: Норвегия Жанр:семейный Продолжительность01:30:39 Перевод: (двухголосый)(МЕГАПЫХАРЬ и Элис)В ролях: ... 9.1 10 10
Торрент: Зарегистрирован [2015-02-02 16:35] · скачан: 192 раз
Статус: T временная
Размер: 1.23 GB
Как cкачать? Как скачать Выжить в Арктике через торрент | UTorrent

% Раздел Тема Автор DL S | L
T Фильмы 2014 [DVDrip, WEB-DLRip, HDrip] [ 2.02 GB ] Выжить в Арктике / Operasjon Arktis [2014 BDRip-AVC] MVO potroks Скачать
1 | 0
T Фильмы 2014 [DVDrip, WEB-DLRip, HDrip] [ 1.3 GB ] Выжить в Арктике / Operasjon Arktis [2014 BDRip-AVC] MVO potroks Скачать
1 | 0
T Фильмы 2014 [DVDrip, WEB-DLRip, HDrip] [ 1.37 GB ] Выжить в Арктике / Operasjon Arktis [2014 HDRip многоголосый официальный звук] Anonymous Скачать
1 | 0
T Фильмы [HD 720p, 1080p] (Звук Cam, VO, DVO) [ 6.68 GB ] Выжить в Арктике / Operasjon Arktis [2014 BDRip 1080p] DVO [МЕГАПЫХАРЬ и Элис] Ворон Скачать
1 | 0

28-11-2019 20:33  

Отключить всю рекламу на сайте

02-02-2015 17:23 Выжить в Арктике Скачать торрент  

фильм детям! А так не че если бы не перевод!piratbit.pw



02-02-2015 17:43 Выжить в Арктике Скачать торрент  

если бы их в конце доконали -был бы и для взрослых...piratbit.pw



    Дорогой пользователь! Огромная просьба, поблагодарите релизера, оцените раздачу и оставьте свои комментарий, если Вы скачали Выжить в Арктике через торрент бесплатно! Внесите свою лепту в развитие PiratBit!
    Комментировать посты могут только пользователи прошедшие не сложную регистрацию
    Показать сообщения:    

    Выжить в Арктике через торрент
    Скачать бесплатно Выжить в Арктике
    Выжить в Арктике скачать торрент
    Выжить в Арктике смотреть онлайн
    Cкачать фильм Выжить в Арктике бесплатно
    Выжить в Арктике скачать торрент в хорошем качестве
    Выжить в Арктике смотреть онлайн бесплатно в хорошем качестве


    Вы не можете начинать темы
    Вы не можете отвечать на сообщения
    Вы не можете редактировать свои сообщения
    Вы не можете удалять свои сообщения
    Вы не можете голосовать в опросах
    Вы не можете прикреплять файлы к сообщениям
    Вы можете скачивать файлы