1 сезон

3 сезон

iTunes

1

iTunes

DUB Netflix

iTunes

13

1 сезон

RePack

30

Deluxe

pack

Легкие деньги

ВАЖНО

ИГРА 18+

pack

RePack

MK11

RePack

jed

RePack

fifa19

RePack

RDR2

RePack

NEED FOR SPEED™ PAYBACK

4 сезон

9 сезон

Бесстыжие 9 сезон

Все сериалы

все сериалы на PB.wtf

RePack

FAR CRY 5

Anonymous, добрый вечер, мы не успеваем до 1 числа собрать деньги на оплату серверов, помогите нам пожалуйста в это трудное время. В качестве благодарности мы отключим Вам всю рекламу на сайте (укажите свой ник в строку Ваше имя)!

×
  
Magnet ссылка

Клиника страха / Fear Clinic (Роберт Холл ) [2014, ужасы, HDRip, Любительский (двухголосый) [den904, DeadSno] piratbit.pw

Клиника страха через торрент piratbit.pw

Размер: 1.3 GB | Добавлен: 6 лет 4 мес. назад | Торрент скачан:221 раз
Скачать  

02-02-2015 16:09 Клиника страха Скачать торрент  


Клиника страха / Fear Clinic


Информация:
Год выпуска:2014
Страна: США
Жанр:ужасы
Продолжительность01:35:26
Перевод:Любительский (двухголосый) [den904, DeadSno]
Режиссер:Роберт Холл

В ролях:


Роберт Инглунд (Dr. Andover), Томас Деккер (Blake), Фиона Дуриф (Sara), Кевин Гейдж (Gage), Фелиша Террелл (Osborn), Брэндон Бимер (Dylan), Бонни Морган (Paige), Анджелина Армани (Caylee), Клеопатра Коулмэн (Megan), Кори Тейлор (Bauer), Nancy Telzerow (Mrs. Patton), Райдер Гейдж (Kevin)

Описание:
После нападения террориста на кафе, психика оставшихся в живых посетителей пострадала настолько, что у них начали появляться и обостряться самые различные фобии. Стремясь избавиться от постоянного страха, превратившего их жизнь в непрекращающийся кошмар, они обращаются к доктору Эндевору, главе клиники, исследующей страх и занимающейся излечением людей от фобий. Однако новаторская экспериментальная метода доктора впускает в наш мир нечто ужасное и непобедимое.


Тех.Данные:
Качество: HDRip
Формат:AVI
Видео кодек: XviD
Аудио кодек:AC3
Видео: XviD, 720x304 (2.35:1), 1748 kbps, 23,976 fps, 0,318 bpp
Аудио: AC3 / 2.0 / 48 kHz / 192 kbps / 16 bit


Код:

General
Complete name                            : D:\Торенты\КлиникаСтраха.avi
Format                                   : AVI
Format/Info                              : Audio Video Interleave
File size                                : 1.30 GiB
Duration                                 : 1h 35mn
Overall bit rate                         : 1 949 Kbps
Writing application                      : VirtualDubModRus 1.5.10.2 (build 2542/release)
Writing library                          : VirtualDubMod build 2542/release

Video
ID                                       : 0
Format                                   : MPEG-4 Visual
Format profile                           : Advanced Simple@L5
Format settings, BVOP                    : 2
Format settings, QPel                    : No
Format settings, GMC                     : No warppoints
Format settings, Matrix                  : Default (H.263)
Muxing mode                              : Packed bitstream
Codec ID                                 : XVID
Codec ID/Hint                            : XviD
Duration                                 : 1h 35mn
Bit rate                                 :1748 Kbps
Width                                    : 720 pixels
Height                                   : 304 pixels
Display aspect ratio                     : 2.35:1
Frame rate                               : 23.976 fps
Color space                              : YUV
Chroma subsampling                       : 4:2:0
Bit depth                                : 8 bits
Scan type                                : Progressive
Compression mode                         : Lossy
Bits/(Pixel*Frame)                       : 0.318
Stream size                              : 1.11 GiB (86%)
Writing library                          : XviD 64

Audio
ID                                       : 1
Format                                   : AC-3
Format/Info                              : Audio Coding 3
Mode extension                           : CM (complete main)
Codec ID                                 : 2000
Duration                                 : 1h 35mn
Bit rate mode                            : Constant
Bit rate                                 : 192 Kbps
Channel(s)                               : 2 channels
Channel positions                        : Front: L R
Sampling rate                            : 48.0 KHz
Bit depth                                : 16 bits
Compression mode                         : Lossy
Stream size                              : 131 MiB (10%)
Alignment                                : Split accross interleaves

Скриншоты:


© Оформление by Ворон
piratbit.pw



Скачать Клиника страха через торрент https://pic1.kartinco.top/images/61/ordi9.jpg Скачать фильм Клиника страха через торрент бесплантно в хорошем качестве Год выпуска:2014 Страна: США Жанр:ужасы Продолжительность01:35:26 Перевод: (двухголосый) [den904, DeadSno] Режиссер:Роберт ... 9.6 10 10
Торрент: Зарегистрирован [2015-02-02 16:09] · скачан: 221 раз
Статус: T временная
Размер: 1.3 GB
Как cкачать? Как скачать Клиника страха через торрент | UTorrent

% Раздел Тема Автор DL S | L
Фильмы (Blu-ray, BD-Remux, HDDVD) [ 15.7 GB ] Клиника страха / Fear Clinic [2014 BDRemux 1080p] DVO Ворон Скачать
1 | 0
T Фильмы (WEB-DL 720p, 1080p) [ 3.06 GB ] Клиника страха / Fear Clinic [2014 WEB-DL 720p Любительский [den904 DeadSno] Ворон Скачать
1 | 0

28-11-2019 20:33  

Отключить всю рекламу на сайте

02-02-2015 16:17 Клиника страха Скачать торрент  

Как фильм? Постер ничего так.piratbit.pw



02-02-2015 16:53 Клиника страха Скачать торрент  

фредди жив!piratbit.pw



07-02-2015 17:01 Клиника страха Скачать торрент  

Очеоедной треш ))))) кто смотрел отпишптесьpiratbit.pw



    Дорогой пользователь! Огромная просьба, поблагодарите релизера, оцените раздачу и оставьте свои комментарий, если Вы скачали Клиника страха через торрент бесплатно! Внесите свою лепту в развитие PiratBit!
    Комментировать посты могут только пользователи прошедшие не сложную регистрацию
    Показать сообщения:    

    Клиника страха через торрент
    Скачать бесплатно Клиника страха
    Клиника страха скачать торрент
    Клиника страха смотреть онлайн
    Cкачать фильм Клиника страха бесплатно
    Клиника страха скачать торрент в хорошем качестве
    Клиника страха смотреть онлайн бесплатно в хорошем качестве


    Вы не можете начинать темы
    Вы не можете отвечать на сообщения
    Вы не можете редактировать свои сообщения
    Вы не можете удалять свои сообщения
    Вы не можете голосовать в опросах
    Вы не можете прикреплять файлы к сообщениям
    Вы можете скачивать файлы