Ссылка на приватное зеркало нашего сайта всего за 1$. Внимание количество ограничено!!!

2 сезон

iTunes

1 сезон

1

iTunes

iTunes

iTunes

1 сезон

RePack

30

ИГРА 18+

pack

ВАЖНО

!!Акция!!

Alien_RageХит недели

RePack

MK11
pack

Забери бонус

RePack

jed

!!Акция!!

Alien_Rage

RePack

fifa19

RePack

Assassins Creed: Odyssey

RePack

NEED FOR SPEED™ PAYBACK

4 сезон

9 сезон

Бесстыжие 9 сезон

Все сериалы

все сериалы на PB.wtf

RePack

FAR CRY 5
  

Королева Шантеклера / La reina del Chantecler (Рафаэль Хиль / Rafael Gil) [1962, Испания, драма, мелодрама, DVDRip,Дубляж - [Лицензия] Профессиональный многоголосый piratbit.pw

Королева Шантеклера через торрент piratbit.pw

Размер: 1.68 GB | Добавлен: 5 лет 8 мес. назад | Торрент скачан:12 раз
Скачать  

01-02-2015 21:57 Королева Шантеклера Скачать торрент  

Королева Шантеклера / La reina del Chantecler

Год выпуска: 1962
Страна: Испания
Жанр: драма, мелодрама

Продолжительность: 01:48:49
Перевод: Дубляж - [Лицензия]
Профессиональный многоголосый
Субтитры: Нет
Режиссер: Рафаэль Хиль / Rafael Gil
В ролях: Сара Монтьель (La Bella Charito), Альберто де Мендоса (Federico de la Torre), Луиджи Джулиани (Santi de Acíbar), Грета Чи (Mata Hari), Жерар Тиши (Henri Duchel), Амелия де ла Торре (Adelina), Милагрос Леал (Doña Pura), Хулия Каба Альба (Doña Exaltación), Хосе Мария Сеоане (Conde), Франсиско Пикер (Rafael), Мигель Лихеро (Don Benigno), Антонио Гариса (Crupier)
Описание:
Музыкальный фильм о трагической любви. Красавица Черита скрывает о т своего возлюбленного Санти, что она певица кабаре, так как чопорное семейство Санти придерживается старых устоев. Санти случайно узнает правду о Черите...
Рейтинг
kinopoisk.ru: 7.134 (236)
imdb.com: 6.90 (57)
Качество: DVDRip
Формат: MKV
Видео кодек: AVC
Аудио кодек:AC3
Видео: AVC, 720x544 (4:3), 1825 kbps, 25 fps, 0,186 bpp
Аудио №1: русский / AC3 / 2.0 / 48 kHz / 192 kbps / 16 bit (Советский дубляж)
Аудио №2: русский / AC3 / 2.0 / 48 kHz / 192 kbps / 16 bit (Многоголосый закадровый)

General
Unique ID : 243125719459256985804658072127564223530 (0xB6E84F722987C100B719DB7D0BBD142A)
Complete name : D:\torrent\Королева Шантеклера.1962.DUB.mkv
Format : Matroska
Format version : Version 4 / Version 2
File size : 1.68 GiB
Duration : 1h 48mn
Overall bit rate : 2 211 Kbps
Encoded date : UTC 2015-01-27 13:27:13
Writing application : mkvmerge v7.0.0 ('Where We Going') 32bit built on Jun 9 2014 15:08:34
Writing library : libebml v1.3.0 + libmatroska v1.4.1
DURATION : 01:48:48.544000000
NUMBER_OF_FRAMES : 204017
NUMBER_OF_BYTES : 156685056
_STATISTICS_WRITING_APP : mkvmerge v7.0.0 ('Where We Going') 32bit built on Jun 9 2014 15:08:34
_STATISTICS_WRITING_DATE_UTC : 2015-01-27 13:27:13
_STATISTICS_TAGS : BPS DURATION NUMBER_OF_FRAMES NUMBER_OF_BYTES

Video
ID : 1
Format : AVC
Format/Info : Advanced Video Codec
Format profile : High@L3.1
Format settings, CABAC : Yes
Format settings, ReFrames : 8 frames
Codec ID : V_MPEG4/ISO/AVC
Duration : 1h 48mn
Bit rate : 1 825 Kbps
Width : 720 pixels
Height : 544 pixels
Display aspect ratio : 4:3
Frame rate : 25.000 fps
Color space : YUV
Chroma subsampling : 4:2:0
Bit depth : 8 bits
Scan type : Progressive
Bits/(Pixel*Frame) : 0.186
Stream size : 1.35 GiB (81%)
Title : La Reina Del Chantecler
Writing library : x264 core 125 r2208 d9d2288
Encoding settings : cabac=1 / ref=8 / deblock=1:-1:-1 / analyse=0x3:0x133 / me=umh / subme=9 / psy=1 / psy_rd=1.00:0.10 / mixed_ref=1 / me_range=32 / chroma_me=1 / trellis=2 / 8x8dct=1 / cqm=0 / deadzone=21,11 / fast_pskip=0 / chroma_qp_offset=-3 / threads=6 / lookahead_threads=1 / sliced_threads=0 / nr=0 / decimate=1 / interlaced=0 / bluray_compat=0 / constrained_intra=0 / bframes=3 / b_pyramid=2 / b_adapt=2 / b_bias=0 / direct=3 / weightb=1 / open_gop=0 / weightp=2 / keyint=250 / keyint_min=25 / scenecut=40 / intra_refresh=0 / rc_lookahead=60 / rc=2pass / mbtree=1 / bitrate=1825 / ratetol=1.0 / qcomp=0.60 / qpmin=0 / qpmax=69 / qpstep=4 / cplxblur=20.0 / qblur=0.5 / ip_ratio=1.40 / aq=1:1.00
Language : Spanish
Default : Yes
Forced : No

Audio #1
ID : 2
Format : AC-3
Format/Info : Audio Coding 3
Mode extension : CM (complete main)
Codec ID : A_AC3
Duration : 1h 48mn
Bit rate mode : Constant
Bit rate : 192 Kbps
Channel(s) : 2 channels
Channel positions : Front: L R
Sampling rate : 48.0 KHz
Bit depth : 16 bits
Compression mode : Lossy
Stream size : 149 MiB (9%)
Title : Советский дубляж
Language : Russian
Default : Yes
Forced : No

Audio #2
ID : 3
Format : AC-3
Format/Info : Audio Coding 3
Mode extension : CM (complete main)
Codec ID : A_AC3
Duration : 1h 48mn
Bit rate mode : Constant
Bit rate : 192 Kbps
Channel(s) : 2 channels
Channel positions : Front: L R
Sampling rate : 48.0 KHz
Bit depth : 16 bits
Compression mode : Lossy
Stream size : 149 MiB (9%)
Title : Многоголосый закадровый
Language : Russian
Default : No
Forced : No


piratbit.pw



Скачать Королева Шантеклера через торрент http://i4.imageban.ru/out/2015/02/02/aed6a9f5cb1ce821d206d9b5f6cdcb62.jpg Скачать фильм Королева Шантеклера через торрент бесплантно в хорошем качестве Описание: Музыкальный фильм о трагической любви. Красавица Черита скрывает о т своего возлюбленного Санти, что она певица кабаре, так как ... 10 10 4
Info! Золотая раздача, скачанное не засчитывается.
Торрент: Зарегистрирован [2015-02-01 21:57] · скачан: 12 раз
Статус: √ проверено
Размер: 1.68 GB
Как cкачать? Как скачать Королева Шантеклера через торрент | qTorrent

28-11-2019 20:33  

Отключить всю рекламу на сайте

    Дорогой пользователь! Огромная просьба, поблагодарите релизера, оцените раздачу и оставьте свои комментарий, если Вы скачали Королева Шантеклера через торрент бесплатно! Внесите свою лепту в развитие PiratBit!
    Комментировать посты могут только пользователи прошедшие не сложную регистрацию
    Показать сообщения:    

    Королева Шантеклера через торрент
    Скачать бесплатно Королева Шантеклера
    Королева Шантеклера скачать торрент
    Королева Шантеклера смотреть онлайн
    Cкачать фильм Королева Шантеклера бесплатно
    Королева Шантеклера скачать торрент в хорошем качестве
    Королева Шантеклера смотреть онлайн бесплатно в хорошем качестве


    Вы не можете начинать темы
    Вы не можете отвечать на сообщения
    Вы не можете редактировать свои сообщения
    Вы не можете удалять свои сообщения
    Вы не можете голосовать в опросах
    Вы не можете прикреплять файлы к сообщениям
    Вы можете скачивать файлы