1 сезон

3 сезон

iTunes

1

iTunes

DUB Netflix

iTunes

13

1 сезон

RePack

30

Deluxe

pack

Легкие деньги

ВАЖНО

ИГРА 18+

pack

RePack

MK11

RePack

jed

RePack

fifa19

RePack

RDR2

RePack

NEED FOR SPEED™ PAYBACK

4 сезон

9 сезон

Бесстыжие 9 сезон

Все сериалы

все сериалы на PB.wtf

RePack

FAR CRY 5

Anonymous, доброе утро, мы не успеваем до 1 числа собрать деньги на оплату серверов, помогите нам пожалуйста в это трудное время. В качестве благодарности мы отключим Вам всю рекламу на сайте (укажите свой ник в строку Ваше имя)!

×
  
Magnet ссылка

Громила / Big Driver (Микаэл Саломон ) [2014, триллер, криминал, детектив, DVDRip, Любительский (одноголосый) [Pashaup] piratbit.pw

Громила через торрент piratbit.pw

Размер: 1.37 GB | Добавлен: 6 лет 4 мес. назад | Торрент скачан:353 раза
Скачать  

01-02-2015 20:14 Громила Скачать торрент  


Громила / Big Driver
«Murder is a two-way street»

Информация:
Год выпуска:2014
Страна: США
Жанр:триллер, криминал, детектив
Продолжительность01:27:25
Перевод:Любительский (одноголосый) [Pashaup]
Режиссер:Микаэл Саломон

В ролях:


Мария Белло, Олимпия Дукакис, Джоан Джетт, Энн Дауд, Уилл Харрис, Дженнифер Кидд (Patsy), Тара Никодемо (Cop Roberts)

Описание:
Писательницу, сочиняющую детективы, зверски изнасиловал маньяк. Это страшное происшествие открыло ей такие стороны собственной натуры, о которых она и не подозревала...

  • Мировая премьера:18 октября 2014

    Тех.Данные:
    Качество: DVDRip
    Формат:AVI
    Видео кодек: XviD
    Аудио кодек:AC3
    Видео: XviD, 720x400 (16:9), 1781 kbps, 23,976 fps, 0,245 bpp
    Аудио: AC3 / 5.1 / 48 kHz / 448 kbps / 16 bit

    Код:

    General
    Complete name                            : D:\Торенты\Big.Driver.2014.DVDRip.1400MB.avi
    Format                                   : AVI
    Format/Info                              : Audio Video Interleave
    File size                                : 1.37 GiB
    Duration                                 : 1h 27mn
    Overall bit rate                         : 2 238 Kbps
    Writing application                      : VirtualDubMod 1.5.10.3 | www.virtualdub-fr.org || (build 2550/release)
    Writing library                          : VirtualDubMod build 2550/release

    Video
    ID                                       : 0
    Format                                   : MPEG-4 Visual
    Format profile                           : Advanced Simple@L5
    Format settings, BVOP                    : 1
    Format settings, QPel                    : No
    Format settings, GMC                     : No warppoints
    Format settings, Matrix                  : Custom
    Codec ID                                 : XVID
    Codec ID/Hint                            : XviD
    Duration                                 : 1h 27mn
    Bit rate                                 : 1781 Kbps
    Width                                    : 720 pixels
    Height                                   : 400 pixels
    Display aspect ratio                     : 16:9
    Frame rate                               : 23.976 fps
    Color space                              : YUV
    Chroma subsampling                       : 4:2:0
    Bit depth                                : 8 bits
    Scan type                                : Progressive
    Compression mode                         : Lossy
    Bits/(Pixel*Frame)                       : 0.245
    Stream size                              : 1.03 GiB (76%)
    Writing library                          : XviD 73

    Audio
    ID                                       : 1
    Format                                   : AC-3
    Format/Info                              : Audio Coding 3
    Mode extension                           : CM (complete main)
    Codec ID                                 : 2000
    Duration                                 : 1h 27mn
    Bit rate mode                            : Constant
    Bit rate                                 : 448 Kbps
    Channel(s)                               : 6 channels
    Channel positions                        : Front: L C R, Side: L R, LFE
    Sampling rate                            : 48.0 KHz
    Bit depth                                : 16 bits
    Compression mode                         : Lossy
    Stream size                              : 280 MiB (20%)
    Alignment                                : Split accross interleaves

    Скриншоты:


    © Оформление by Ворон
    piratbit.pw



  • Скачать Громила через торрент https://pic1.kartinco.top/images/61/ordi9.jpg Скачать фильм Громила через торрент бесплантно в хорошем качестве Год выпуска:2014✦ Страна: США✦ Жанр:триллер, криминал, детектив✦ Продолжительность01:27:25✦ Перевод: (одноголосый) [Pashaup]✦ ... 9.4 10 9
    Торрент: Зарегистрирован [2015-02-01 20:14] · скачан: 353 раз
    Статус: T временная
    Размер: 1.37 GB
    Как cкачать? Как скачать Громила через торрент | UTorrent

    28-11-2019 20:33  

    Отключить всю рекламу на сайте

    02-02-2015 10:49 Громила Скачать торрент  

    Книга очень понравилась, но экранизации по Кингу редко удаются к сожалению :(piratbit.pw



    04-02-2015 19:45 Громила Скачать торрент  

    Valteron писал(а):

    Книга очень понравилась, но экранизации по Кингу редко удаются к сожалению :(

    +++piratbit.pw



      Дорогой пользователь! Огромная просьба, поблагодарите релизера, оцените раздачу и оставьте свои комментарий, если Вы скачали Громила через торрент бесплатно! Внесите свою лепту в развитие PiratBit!
      Комментировать посты могут только пользователи прошедшие не сложную регистрацию
      Показать сообщения:    

      Громила через торрент
      Скачать бесплатно Громила
      Громила скачать торрент
      Громила смотреть онлайн
      Cкачать фильм Громила бесплатно
      Громила скачать торрент в хорошем качестве
      Громила смотреть онлайн бесплатно в хорошем качестве


      Вы не можете начинать темы
      Вы не можете отвечать на сообщения
      Вы не можете редактировать свои сообщения
      Вы не можете удалять свои сообщения
      Вы не можете голосовать в опросах
      Вы не можете прикреплять файлы к сообщениям
      Вы можете скачивать файлы