2 сезон

iTunes

1 сезон

1

iTunes

iTunes

iTunes

1 сезон

RePack

30

ИГРА 18+

pack

ВАЖНО

!!Акция!!

Alien_RageХит недели

RePack

MK11
pack

Забери бонус

RePack

jed

!!Акция!!

Alien_Rage

RePack

fifa19

RePack

Assassins Creed: Odyssey

RePack

NEED FOR SPEED™ PAYBACK

4 сезон

9 сезон

Бесстыжие 9 сезон

Все сериалы

все сериалы на PB.wtf

RePack

FAR CRY 5
  

8 новых свиданий (Марюс Вайсберг) [2014, Россия, комедия, WEB-DLRip-AVC,] [iTunes] От R.G. PiratFilms piratbit.pw

8 новых свиданий через торрент piratbit.pw

Размер: 1.42 GB | Добавлен: 5 лет 8 мес. назад | Торрент скачан:1480 раз
Скачать  

01-02-2015 18:02 8 новых свиданий Скачать торрент  

8 новых свиданий


Год выпуска: 2014
Страна: Россия
Жанр: комедия
Продолжительность: 01:23:55
Перевод: Не требуется [iTunes]
Субтитры: Нет
Режиссер: Марюс Вайсберг
В ролях:

Оксана Акиньшина (Вера), Владимир Зеленский (Никита), Михаил Галустян (Тимур), Полина Максимова (Кристина), Виктор Васильев (Леша), Сабина Ахмедова (Карина), Евгений Кошевой (гость на свадьбе), Сергей Шнуров (Шнур), Настя Задорожная (путана), Наталья Иохвидова (секретарь Никиты), Наталья Унгард (теща), Сергей Барковский (доктор)
Описание:
Вера и Никита женаты 3 года. В разгар очередной радостной ссоры они обмениваются категоричными мнениями о том, какими должны быть «нормальный муж» и «хорошая жена». И на следующее утро... каждый просыпается с «идеальной половинкой». У Никиты жена-блондинка с третьим размером, которая хорошо готовит; у Веры заботливый муж-бизнесмен, сам покупающий к завтраку ее любимые круасаны. С кем жить лучше, с любимым или идеальным? Будьте осторожны с желаниями - иногда они сбываются!
Мировая премьера: 1 января 2015
    Качество: WEB-DLRip-AVC (исх. WEB-DLRip 1080р)
    Формат: MKV
    Видео кодек: AVC
    Аудио кодек:AC3
    Видео: AVC, 1024x576 (16:9), 2047 kbps, 24 fps, 0,145 bpp
    Аудио: русский / AC3 / 5.1 / 48 kHz / 384 kbps / 16 bit ||


Код:

---[Information] [01.02.2015 11:18:16] x264 [info]: frame I:1831  Avg QP:14.17  size: 81256  PSNR Mean Y:49.16 U:52.28 V:52.04 Avg:49.89 Global:49.63
---[Information] [01.02.2015 11:18:16] x264 [info]: frame P:32053 Avg QP:17.33  size: 19520  PSNR Mean Y:46.81 U:51.71 V:51.48 Avg:47.71 Global:47.27
---[Information] [01.02.2015 11:18:16] x264 [info]: frame B:86958 Avg QP:19.68  size:  5888  PSNR Mean Y:46.43 U:51.85 V:51.59 Avg:47.40 Global:46.88
---[Information] [01.02.2015 11:18:16] x264 [info]: consecutive B-frames:  3.0%  4.4%  6.0% 76.6%  3.4%  4.2%  0.5%  1.5%  0.4%

Код:

General
Unique ID                                : 222956841828391851471825352414725462303 (0xA7BBED011E91ACACA4504EA58414D91F)
Complete name                            : D:\рипы От R.G. PiratFilms\8.N0vyh.Sv1daniy.2014.WEB DLRip-AVC.by.White Smoke.R.G.PiratFilms.mkv
Format                                   : Matroska
Format version                           : Version 4 / Version 2
File size                                : 1.42 GiB
Duration                                 : 1h 23mn
Overall bit rate                         : 2 430 Kbps
Movie name                               : 8.N0vyh.Sv1daniy.2014.WEB DLRip-AVC.by.White Smoke.R.G.PiratFilms.mkv
Encoded date                             : UTC 2015-02-01 15:28:39
Writing application                      : mkvmerge v6.8.0 ('Theme for Great Cities') 64bit built on Mar  2 2014 21:34:26
Writing library                          : libebml v1.3.0 + libmatroska v1.4.1

Video
ID                                       : 1
Format                                   : AVC
Format/Info                              : Advanced Video Codec
Format profile                           : High@L4.1
Format settings, CABAC                   : Yes
Format settings, ReFrames                : 8 frames
Codec ID                                 : V_MPEG4/ISO/AVC
Duration                                 : 1h 23mn
Bit rate                                 : 2 047 Kbps
Width                                    : 1 024 pixels
Height                                   : 576 pixels
Display aspect ratio                     : 16:9
Frame rate                               : 24.000 fps
Color space                              : YUV
Chroma subsampling                       : 4:2:0
Bit depth                                : 8 bits
Scan type                                : Progressive
Bits/(Pixel*Frame)                       : 0.145
Stream size                              : 1.17 GiB (82%)
Writing library                          : x264 core 142 r2431 ac76440
Encoding settings                        : cabac=1 / ref=8 / deblock=1:-3:-3 / analyse=0x3:0x113 / me=umh / subme=9 / psy=1 / psy_rd=1.00:0.00 / mixed_ref=1 / me_range=32 / chroma_me=1 / trellis=1 / 8x8dct=1 / cqm=0 / deadzone=21,11 / fast_pskip=1 / chroma_qp_offset=-2 / threads=12 / lookahead_threads=2 / sliced_threads=0 / nr=0 / decimate=1 / interlaced=0 / bluray_compat=0 / constrained_intra=0 / bframes=8 / b_pyramid=2 / b_adapt=2 / b_bias=8 / direct=1 / weightb=0 / open_gop=0 / weightp=2 / keyint=240 / keyint_min=24 / scenecut=40 / intra_refresh=0 / rc_lookahead=40 / rc=2pass / mbtree=1 / bitrate=2047 / ratetol=1.0 / qcomp=0.65 / qpmin=0 / qpmax=69 / qpstep=4 / cplxblur=20.0 / qblur=0.5 / ip_ratio=1.40 / aq=1:1.00
Language                                 : English
Default                                  : Yes
Forced                                   : No

Audio
ID                                       : 2
Format                                   : AC-3
Format/Info                              : Audio Coding 3
Mode extension                           : CM (complete main)
Codec ID                                 : A_AC3
Duration                                 : 1h 23mn
Bit rate mode                            : Constant
Bit rate                                 : 384 Kbps
Channel(s)                               : 6 channels
Channel positions                        : Front: L C R, Side: L R, LFE
Sampling rate                            : 48.0 KHz
Bit depth                                : 16 bits
Compression mode                         : Lossy
Stream size                              : 230 MiB (16%)
Language                                 : Russian
Default                                  : Yes
Forced                                   : No


Скриншоты:

За Обложку к релизу спасибо XLASER



piratbit.pw



Скачать 8 новых свиданий через торрент http://pic1.kartinco.top/images/9/5c2gu.jpg Скачать фильм 8 новых свиданий через торрент бесплантно в хорошем качестве Описание: Вера и Никита женаты 3 года. В разгар очередной радостной ссоры они обмениваются категоричными мнениями о том, какими должны быть ... 8.9 10 34
Info! Золотая раздача, скачанное не засчитывается.
Торрент: Зарегистрирован [2015-02-01 18:02] · скачан: 1 480 раз
Статус: √ проверено
Размер: 1.42 GB
Как cкачать? Как скачать 8 новых свиданий через торрент | qTorrent

28-11-2019 20:33  

Отключить всю рекламу на сайте

01-02-2015 20:42 8 новых свиданий Скачать торрент  

Любые высказывания о политике и все что тут указанно Важно! Обсуждение Евромайдана, АТО и политической ситуации в Украине Бан на месяц, особо злостным деактивация акаунта. Народ не сходите с ума, это кино и в нем нет никакой политики или пропаганды какой либо в том числе скрытой. Если Вам не нравиться актёр гоу в вк или соц сети и там обсерайте кого угодно. Тут в теме оцениваем сам фильм и пишем отзывы о нем.piratbit.pw



02-02-2015 16:22 8 новых свиданий Скачать торрент  

Классное кино!)) Реально смешное, хорошая игра) 10 из 10 - получил удовольствие от просмотра!piratbit.pw



02-02-2015 16:49 8 новых свиданий Скачать торрент  

Да кстати,ничего так.В выходные прям нормально так посмотрелось.Один раз можно-желательно с подружкой под мышкой.Любят они такие"сопли"-размякают на глазах piratbit.pw



02-02-2015 17:52 8 новых свиданий Скачать торрент  

Когда в будет лицензия?piratbit.pw



04-02-2015 00:01 8 новых свиданий Скачать торрент  

Спасибо, заценим :sarcastic_blum: Первая часть очень даже ничего, надеюсь, вторую не испоганили=)))piratbit.pw



05-02-2015 03:18 8 новых свиданий Скачать торрент  

не смешно, вообще мало стало комедий смешныхpiratbit.pw



06-02-2015 15:19 8 новых свиданий Скачать торрент  

Я знаю почему так мало коментов. Всех забанят. Не буду смотреть сами знаете почему.piratbit.pw



06-02-2015 16:45 8 новых свиданий Скачать торрент  

НАС РАТЬ писал(а):

Я знаю почему так мало коментов. Всех забанят. Не буду смотреть сами знаете почему.

+ 1 Один из актёров вызывает чувства далеко противоположные комедии piratbit.pw



06-02-2015 20:04 8 новых свиданий Скачать торрент  

как фильм, время тратить стоит ?piratbit.pw



08-02-2015 16:06 8 новых свиданий Скачать торрент  

1samurai1 писал(а):

как фильм, время тратить стоит ?

Нормуль фильм. с женой смотрел. интересный)piratbit.pw



11-02-2015 09:03 8 новых свиданий Скачать торрент  

1samurai1 писал(а):

как фильм, время тратить стоит ?

Не стоит. Один номер камеди клаб расстянутый на 1,5 часа. Истории с переселением душ в другие тела уже под надоели. У нас в России использовали раз 10 за 5 лет. И все бездарно.piratbit.pw



10-03-2015 20:38 8 новых свиданий Скачать торрент  

Не пойму из за Галустяна фильм никто смотреть не хочет? Он та в чем где проштрафился ?piratbit.pw



    Дорогой пользователь! Огромная просьба, поблагодарите релизера, оцените раздачу и оставьте свои комментарий, если Вы скачали 8 новых свиданий через торрент бесплатно! Внесите свою лепту в развитие PiratBit!
    Комментировать посты могут только пользователи прошедшие не сложную регистрацию
    Показать сообщения:    

    8 новых свиданий через торрент
    Скачать бесплатно 8 новых свиданий
    8 новых свиданий скачать торрент
    8 новых свиданий смотреть онлайн
    Cкачать фильм 8 новых свиданий бесплатно
    8 новых свиданий скачать торрент в хорошем качестве
    8 новых свиданий смотреть онлайн бесплатно в хорошем качестве


    Вы не можете начинать темы
    Вы не можете отвечать на сообщения
    Вы не можете редактировать свои сообщения
    Вы не можете удалять свои сообщения
    Вы не можете голосовать в опросах
    Вы не можете прикреплять файлы к сообщениям
    Вы можете скачивать файлы