1 сезон

3 сезон

iTunes

1

iTunes

DUB Netflix

iTunes

13

1 сезон

RePack

30

Deluxe

pack

Легкие деньги

ВАЖНО

ИГРА 18+

pack

RePack

MK11

RePack

jed

RePack

fifa19

RePack

RDR2

RePack

NEED FOR SPEED™ PAYBACK

4 сезон

9 сезон

Бесстыжие 9 сезон

Все сериалы

все сериалы на PB.wtf

RePack

FAR CRY 5

Anonymous, доброй ночи, мы не успеваем до 1 числа собрать деньги на оплату серверов, помогите нам пожалуйста в это трудное время. В качестве благодарности мы отключим Вам всю рекламу на сайте (укажите свой ник в строку Ваше имя)!

×
  
Magnet ссылка

Город 44 / Miasto 44 (Ян Комаса ) [2014, драма, военный, HDRip, Любительский (двухголосый) [RAIM & NASTR] piratbit.pw

Город 44 через торрент piratbit.pw

Размер: 2.05 GB | Добавлен: 6 лет 4 мес. назад | Торрент скачан:275 раз
Скачать  

01-02-2015 14:31 Город 44 Скачать торрент  


Город 44 / Miasto 44


Информация:
Год выпуска:2014
Страна: Польша
Жанр:драма, военный
Продолжительность02:06:46
Перевод:Любительский (двухголосый) [RAIM & NASTR]
Режиссер:Ян Комаса

В ролях:


Юзеф Павловский (Stefan Zawadzki), Зофиа Вихлач (Biedronka (Alicja Saska)), Анна Прухняк (Kama (Kamila Jedrusik)), Энтони Круликовски (Beksa), Мауриси Попьел (Góral), Filip Gurlacz (Rogal), Михал Миколайчак (Aleksander Saski), Каролина Станец (Beata), Жасмин Полак (Ewa), Томаш Шухардт (Kobra), Михал Журавски (Czarny), Михал Ковальчук (Pajak)

Описание:
Действие фильма начинается перед самым началом варшавского восстания 1 августа 1944 года. Фильм рассказывает о группе близких друзей, которые приезжают в столицу в разгар повстанческой борьбы. Стефан работает на заводе Ведля, содержит мать и младшего брата, ежедневно испытывая унижения немцев. Мечтает о мгновении, когда сможет им за все отплатить и исполнить долг перед Родиной. Как только представляется случай - он вступает в ряды Армии Крайовой. Во время конспиративных встреч Стефан знакомится с Бедронкой, тонкой и впечатлительной девушкой. Молодые люди познают вкус первой юношеской любви. Но когда смерть грозит на каждом шагу, такая любовь не может быть счастливой...


Тех.Данные:
Качество: HDRip
Формат:AVI
Видео кодек: XviD
Аудио кодек:AC3
Видео: XviD, 720x304 (2.35:1), 1858 kbps, 24 fps, 0,337 bpp
Аудио: AC3 / 5.1 / 48 kHz / 448 kbps / 16 bit

Код:

General
Complete name                            : D:\Торенты\Gorod.44.2014.L2.HDRip.2100MB.avi
Format                                   : AVI
Format/Info                              : Audio Video Interleave
File size                                : 2.05 GiB
Duration                                 : 2h 6mn
Overall bit rate                         : 2 318 Kbps
Writing application                      : VirtualDubMod 1.5.10.2 (build 2540/release)
Writing library                          : VirtualDubMod build 2540/release

Video
ID                                       : 0
Format                                   : MPEG-4 Visual
Format profile                           : Advanced Simple@L5
Format settings, BVOP                    : 2
Format settings, QPel                    : No
Format settings, GMC                     : No warppoints
Format settings, Matrix                  : Default (MPEG)
Codec ID                                 : XVID
Codec ID/Hint                            : XviD
Duration                                 : 2h 6mn
Bit rate                                 : 1858 Kbps
Width                                    : 720 pixels
Height                                   : 304 pixels
Display aspect ratio                     : 2.35:1
Frame rate                               : 24.000 fps
Color space                              : YUV
Chroma subsampling                       : 4:2:0
Bit depth                                : 8 bits
Scan type                                : Progressive
Compression mode                         : Lossy
Bits/(Pixel*Frame)                       : 0.337
Stream size                              : 1.57 GiB (76%)
Writing library                          : XviD 1.2.1 (UTC 2008-12-04)

Audio
ID                                       : 1
Format                                   : AC-3
Format/Info                              : Audio Coding 3
Mode extension                           : CM (complete main)
Codec ID                                 : 2000
Duration                                 : 2h 6mn
Bit rate mode                            : Constant
Bit rate                                 : 448 Kbps
Channel(s)                               : 6 channels
Channel positions                        : Front: L C R, Side: L R, LFE
Sampling rate                            : 48.0 KHz
Bit depth                                : 16 bits
Compression mode                         : Lossy
Stream size                              : 406 MiB (19%)
Alignment                                : Split accross interleaves

Скриншоты:


© Оформление by Ворон
piratbit.pw



Скачать Город 44 через торрент https://pic1.kartinco.top/images/61/ordi9.jpg Скачать фильм Город 44 через торрент бесплантно в хорошем качестве Год выпуска:2014 Страна: Польша Жанр:драма, военный Продолжительность02:06:46 Перевод: (двухголосый) [RAIM & ... 8.4 10 9
Торрент: Зарегистрирован [2015-02-01 14:31] · скачан: 275 раз
Статус: T временная
Размер: 2.05 GB
Как cкачать? Как скачать Город 44 через торрент | UTorrent

% Раздел Тема Автор DL S | L
T Фильмы [HD 720p, 1080p] (Звук Cam, VO, DVO) [ 11.65 GB ] Город 44 / Miasto 44 [2014 военный BDRip 1080p Любительский [RAIM & NASTR] Ворон Скачать
1 | 0

28-11-2019 20:33  

Отключить всю рекламу на сайте

03-02-2015 16:54 Город 44 Скачать торрент  

пропаганда гордости самой продажной нации в Европе(((piratbit.pw



    Дорогой пользователь! Огромная просьба, поблагодарите релизера, оцените раздачу и оставьте свои комментарий, если Вы скачали Город 44 через торрент бесплатно! Внесите свою лепту в развитие PiratBit!
    Комментировать посты могут только пользователи прошедшие не сложную регистрацию
    Показать сообщения:    

    Город 44 через торрент
    Скачать бесплатно Город 44
    Город 44 скачать торрент
    Город 44 смотреть онлайн
    Cкачать фильм Город 44 бесплатно
    Город 44 скачать торрент в хорошем качестве
    Город 44 смотреть онлайн бесплатно в хорошем качестве


    Вы не можете начинать темы
    Вы не можете отвечать на сообщения
    Вы не можете редактировать свои сообщения
    Вы не можете удалять свои сообщения
    Вы не можете голосовать в опросах
    Вы не можете прикреплять файлы к сообщениям
    Вы можете скачивать файлы