Ссылка на приватное зеркало нашего сайта всего за 1$. Внимание количество ограничено!!!

2 сезон

iTunes

1 сезон

1

iTunes

iTunes

iTunes

1 сезон

RePack

30

ИГРА 18+

pack

ВАЖНО

!!Акция!!

Alien_RageХит недели

RePack

MK11
pack

Забери бонус

RePack

jed

!!Акция!!

Alien_Rage

RePack

fifa19

RePack

Assassins Creed: Odyssey

RePack

NEED FOR SPEED™ PAYBACK

4 сезон

9 сезон

Бесстыжие 9 сезон

Все сериалы

все сериалы на PB.wtf

RePack

FAR CRY 5
  

8 новых свиданий (Марюс Вайсберг ) [2014, комедия, WEB-DLRip, Оригинал [iTunes] piratbit.pw

8 новых свиданий через торрент piratbit.pw

Размер: 1.37 GB | Добавлен: 5 лет 8 мес. назад | Торрент скачан:7939 раз
Скачать  

31-01-2015 20:43 8 новых свиданий Скачать торрент  


8 новых свиданий


Информация:
Год выпуска:2014
Страна: Россия
Жанр:комедия
Продолжительность01:23:55
Перевод:Не требуется
Режиссер:Марюс Вайсберг

В ролях:

Оксана Акиньшина (Вера), Владимир Зеленский (Никита), Михаил Галустян, Полина Максимова, Сергей Шнуров, Виктор Васильев
Описание:
Вера и Никита женаты 3 года. В разгар очередной радостной ссоры они обмениваются категоричными мнениями о том, какими должны быть «нормальный муж» и «хорошая жена». И на следующее утро... каждый просыпается с «идеальной половинкой». У Никиты жена-блондинка с третьим размером, которая хорошо готовит; у Веры заботливый муж-бизнесмен, сам покупающий к завтраку ее любимые круасаны. С кем жить лучше, с любимым или идеальным? Будьте осторожны с желаниями - иногда они сбываются!



Тех.Данные:
Качество: WEB-DLRip
Формат:AVI
Видео кодек: XviD
Аудио кодек:AC3
Видео: XviD, 720x400 (16:9), 1987 kbps, 24 fps, 0,267 bpp
Аудио: AC3 / 5.1 / 48 kHz / 384 kbps / 16 bit

Код:

General
Complete name                            : D:\Торенты\8.N0vyh.Sv1daniy.2014.O.WEB-DLRip.1400MB.avi
Format                                   : AVI
Format/Info                              : Audio Video Interleave
File size                                : 1.37 GiB
Duration                                 : 1h 23mn
Overall bit rate                         : 2 331 Kbps
Writing application                      : VirtualDubMod 1.5.10.3 | www.virtualdub-fr.org || (build 2550/release)
Writing library                          : VirtualDubMod build 2550/release

Video
ID                                       : 0
Format                                   : MPEG-4 Visual
Format profile                           : Advanced Simple@L5
Format settings, BVOP                    : 2
Format settings, QPel                    : No
Format settings, GMC                     : No warppoints
Format settings, Matrix                  : Default (MPEG)
Codec ID                                 : XVID
Codec ID/Hint                            : XviD
Duration                                 : 1h 23mn
Bit rate                                 : 1987  Kbps
Width                                    : 720 pixels
Height                                   : 400 pixels
Display aspect ratio                     : 16:9
Frame rate                               : 24.000 fps
Color space                              : YUV
Chroma subsampling                       : 4:2:0
Bit depth                                : 8 bits
Scan type                                : Progressive
Compression mode                         : Lossy
Bits/(Pixel*Frame)                       : 0.267
Stream size                              : 1.08 GiB (79%)
Writing library                          : XviD 1.2.1 (UTC 2008-12-04)

Audio
ID                                       : 1
Format                                   : AC-3
Format/Info                              : Audio Coding 3
Mode extension                           : CM (complete main)
Codec ID                                 : 2000
Duration                                 : 1h 23mn
Bit rate mode                            : Constant
Bit rate                                 : 384 Kbps
Channel(s)                               : 6 channels
Channel positions                        : Front: L C R, Side: L R, LFE
Sampling rate                            : 48.0 KHz
Bit depth                                : 16 bits
Compression mode                         : Lossy
Stream size                              : 230 MiB (16%)
Alignment                                : Split accross interleaves

Скриншоты:


© Оформление by Ворон
piratbit.pw



Скачать 8 новых свиданий через торрент http://pic.kartinco.top/images/6/ordi9.jpg Скачать фильм 8 новых свиданий через торрент бесплантно в хорошем качестве Год выпуска:2014 Страна: Россия Жанр:комедия Продолжительность01:23:55 Перевод:Не требуется Режиссер:Марюс Вайсберг В ролях: ... 9.2 10 149
Info! Золотая раздача, скачанное не засчитывается.
Торрент: Зарегистрирован [2015-01-31 20:43] · скачан: 7 939 раз
Статус: √ проверено
Размер: 1.37 GB
Как cкачать? Как скачать 8 новых свиданий через торрент | qTorrent

% Раздел Тема Автор DL S | L
Наши фильмы (DVD фильмы) [ 4.53 GB ] 8 новых свиданий [2015 DVD9] R5 voovaz Скачать
1 | 0
Наши новые фильмы 2014 [ 1.42 GB ] 8 новых свиданий [2014 Россия WEB-DLRip-AVC] От R.G. PiratFilms White Smoke Скачать
1 | 0
Наши фильмы (HD, WEB-DL 720p, 1080p) [ 3.23 GB ] 8 новых свиданий [2014 WEB-DL 1080p Оригинал Ворон Скачать
1 | 0
T Наши фильмы (HD, WEB-DL 720p, 1080p) [ 2.72 GB ] 8 новых свиданий [2014 WEB-DL 720p Оригинал Anonymous Скачать
1 | 0

28-11-2019 20:33  

Отключить всю рекламу на сайте

01-02-2015 13:03 8 новых свиданий Скачать торрент  

Насчёт фильма, кстати очень весёлый фильм, последнее время российские комедия стали намного лучше, легко смотрятся.piratbit.pw



01-02-2015 19:21 8 новых свиданий Скачать торрент  

Спасибо за фильм посмотрим.!piratbit.pw



    Дорогой пользователь! Огромная просьба, поблагодарите релизера, оцените раздачу и оставьте свои комментарий, если Вы скачали 8 новых свиданий через торрент бесплатно! Внесите свою лепту в развитие PiratBit!
    Комментировать посты могут только пользователи прошедшие не сложную регистрацию
    Показать сообщения:    

    8 новых свиданий через торрент
    Скачать бесплатно 8 новых свиданий
    8 новых свиданий скачать торрент
    8 новых свиданий смотреть онлайн
    Cкачать фильм 8 новых свиданий бесплатно
    8 новых свиданий скачать торрент в хорошем качестве
    8 новых свиданий смотреть онлайн бесплатно в хорошем качестве


    Вы не можете начинать темы
    Вы не можете отвечать на сообщения
    Вы не можете редактировать свои сообщения
    Вы не можете удалять свои сообщения
    Вы не можете голосовать в опросах
    Вы не можете прикреплять файлы к сообщениям
    Вы можете скачивать файлы