Ссылка на приватное зеркало нашего сайта всего за 1$. Внимание количество ограничено!!!

2 сезон

iTunes

1 сезон

1

iTunes

iTunes

iTunes

1 сезон

RePack

30

ИГРА 18+

pack

ВАЖНО

!!Акция!!

Alien_RageХит недели

RePack

MK11
pack

Забери бонус

RePack

jed

!!Акция!!

Alien_Rage

RePack

fifa19

RePack

Assassins Creed: Odyssey

RePack

NEED FOR SPEED™ PAYBACK

4 сезон

9 сезон

Бесстыжие 9 сезон

Все сериалы

все сериалы на PB.wtf

RePack

FAR CRY 5
  

Василиса (Антон Сиверс ) [2014, история, мелодрама, HDRip, Оригинал [Лицензия] piratbit.pw

Василиса через торрент piratbit.pw

Размер: 1.46 GB | Добавлен: 5 лет 9 мес. назад | Торрент скачан:944 раза
Скачать  

29-01-2015 19:36 Василиса Скачать торрент  

Василиса

Год выпуска: 2014
Страна: Россия
Жанр: история, мелодрама
Продолжительность: 01:39:50
Перевод: Не требуется
Режиссер: Антон Сиверс
В ролях: Светлана Ходченкова (Василиса Кожина), Дмитрий Соломыкин (Рязанов), Жером Кузан (Блие), Кристина Кузьмина (Дашка), Игорь Черневич (Максим Кожин), Андрей Ильин (Елагин), Ирина Розанова (Катерина Карловна), Илья Носков (Отшельник), Андрей Носков (Митька), Жоанн Морио (Кантана), Оливье Сиу (Шарль), Сесиль Мари Жендр (Лизи)
Описание:
Он дворянин, а она - крепостная крестьянка... Им не суждено быть вместе. Возможно, так и закончилась бы эта любовная история, если бы не ВОЙНА. Наполеон вторгся в пределы Российской Империи, и этот день изменил привычный уклад и сословные предрассудки. Мир больше никогда не станет прежним. Война пишет новую историю любви.
Рейтинг:

Качество: HDRip
Формат: AVI
Видео кодек: XviD
Аудио кодек:AC3
Видео: XviD, 720x400 (16:9), 1633 kbps, 24 fps, 0,224 bpp
Аудио: AC3 / 5.1 / 48 kHz / 448 kbps / 16 bit

Код:

General
Complete name                            : D:\Торенты\Vasil1sa.2014.O.HDRip.1400MB.avi
Format                                   : AVI
Format/Info                              : Audio Video Interleave
File size                                : 1.46 GiB
Duration                                 : 1h 39mn
Overall bit rate                         : 2 089 Kbps
Writing application                      : VirtualDubMod 1.5.10.2 (build 2540/release)
Writing library                          : VirtualDubMod build 2540/release

Video
ID                                       : 0
Format                                   : MPEG-4 Visual
Format profile                           : Advanced Simple@L5
Format settings, BVOP                    : 2
Format settings, QPel                    : No
Format settings, GMC                     : No warppoints
Format settings, Matrix                  : Default (MPEG)
Codec ID                                 : XVID
Codec ID/Hint                            : XviD
Duration                                 : 1h 39mn
Bit rate                                 : 1633 Kbps
Width                                    : 720 pixels
Height                                   : 400 pixels
Display aspect ratio                     : 16:9
Frame rate                               : 24.000 fps
Color space                              : YUV
Chroma subsampling                       : 4:2:0
Bit depth                                : 8 bits
Scan type                                : Progressive
Compression mode                         : Lossy
Bits/(Pixel*Frame)                       : 0.224
Stream size                              : 1.08 GiB (74%)
Writing library                          : XviD 1.2.1 (UTC 2008-12-04)

Audio
ID                                       : 1
Format                                   : AC-3
Format/Info                              : Audio Coding 3
Mode extension                           : CM (complete main)
Codec ID                                 : 2000
Duration                                 : 1h 39mn
Bit rate mode                            : Constant
Bit rate                                 : 448 Kbps
Channel(s)                               : 6 channels
Channel positions                        : Front: L C R, Side: L R, LFE
Sampling rate                            : 48.0 KHz
Bit depth                                : 16 bits
Compression mode                         : Lossy
Stream size                              : 320 MiB (21%)
Alignment                                : Split accross interleaves

piratbit.pw



Скачать Василиса через торрент http://i60.fastpic.ru/big/2015/0129/37/92402e68a04b8e5d6c6200abe94bc637.jpg Скачать фильм Василиса через торрент бесплантно в хорошем качестве Описание: Он дворянин, а она - крепостная крестьянка... Им не суждено быть вместе. Возможно, так и закончилась бы эта любовная история, ... 8.9 10 26
Торрент: Зарегистрирован [2015-01-29 19:36] · скачан: 944 раз
Статус: √ проверено
Размер: 1.46 GB
Как cкачать? Как скачать Василиса через торрент | qTorrent

% Раздел Тема Автор DL S | L
Русское любительское видео [ 1.29 GB ] VasilisaVasilisa - Добротная сексвайф Василиса [2019 Amateur MILF Sexwife Lingrie Stockings Blowjob Cumshot Russian Homemade 1080p] [Pornhub.com] Pir@tya2010 Скачать
2 | 0
Наши мультфильмы [ 296 MB ] Василиса Микулишна [1975 Мультфильм былина DVDRip-AVC] Скорпион1976 Скачать
1 | 0
Детские отечественные фильмы [ 2.32 GB ] Василиса прекрасная [1939 Сказка DVDRip-AVC] Скорпион1976 Скачать
1 | 0
Документальные фильмы и телепередачи [ 9.44 GB ] Клевое место [2009 Документальный рыбалка обучающий познавательный SATRip Оригинальный] Бумер Скачать
1 | 0
Наши сериалы [ 32.24 GB ] Василиса / Сезон 1 / Серии 1-60 из 60 [2017 Россия HDTVRip] GEKADOL Скачать
1 | 0
Русское любительское видео [ 154 MB ] Василиса Дьячкова и Виктор Петрович [2017 Amateur Homemade Russian Anal CamRip] nn99nn Скачать
1 | 0
Наши сериалы [ 2.76 GB ] Василиса Серии: 1-4 из 4 [2014 исторический фильм HDTVRip-AVC] [Расширенная телеверсия] aleksan55 Скачать
1 | 0

28-11-2019 20:33  

Отключить всю рекламу на сайте

29-01-2015 21:45 Василиса Скачать торрент  

как фильм то?а то качаете и не пишите :film:piratbit.pw



30-01-2015 02:22 Василиса Скачать торрент  

Опять отстой ?piratbit.pw



31-01-2015 12:28 Василиса Скачать торрент  

полный отстой!! Как еще Ходченкова согласилась играть в таком......piratbit.pw



31-01-2015 13:01 Василиса Скачать торрент  

фильм полное г... :cansored:piratbit.pw



    Дорогой пользователь! Огромная просьба, поблагодарите релизера, оцените раздачу и оставьте свои комментарий, если Вы скачали Василиса через торрент бесплатно! Внесите свою лепту в развитие PiratBit!
    Комментировать посты могут только пользователи прошедшие не сложную регистрацию
    Показать сообщения:    

    Василиса через торрент
    Скачать бесплатно Василиса
    Василиса скачать торрент
    Василиса смотреть онлайн
    Cкачать фильм Василиса бесплатно
    Василиса скачать торрент в хорошем качестве
    Василиса смотреть онлайн бесплатно в хорошем качестве


    Вы не можете начинать темы
    Вы не можете отвечать на сообщения
    Вы не можете редактировать свои сообщения
    Вы не можете удалять свои сообщения
    Вы не можете голосовать в опросах
    Вы не можете прикреплять файлы к сообщениям
    Вы можете скачивать файлы