1 сезон

3 сезон

iTunes

1

iTunes

DUB Netflix

iTunes

13

1 сезон

RePack

30

Deluxe

pack

Легкие деньги

ВАЖНО

ИГРА 18+

pack

RePack

MK11

RePack

jed

RePack

fifa19

RePack

RDR2

RePack

NEED FOR SPEED™ PAYBACK

4 сезон

9 сезон

Бесстыжие 9 сезон

Все сериалы

все сериалы на PB.wtf

RePack

FAR CRY 5

Anonymous, добрый вечер, мы не успеваем до 1 числа собрать деньги на оплату серверов, помогите нам пожалуйста в это трудное время. В качестве благодарности мы отключим Вам всю рекламу на сайте (укажите свой ник в строку Ваше имя)!

×
  
Magnet ссылка

Давай знакомиться. Фильм / Hello Ladies: The Movie (Стивен Мерчант ) [2014, комедия, HDTVRip, Любительский (одноголосый)[Lord32x ] piratbit.pw

Давай знакомиться. Фильм через торрент piratbit.pw

Размер: 1.46 GB | Добавлен: 6 лет 4 мес. назад | Торрент скачан:171 раз
Скачать  

26-01-2015 15:46 Давай знакомиться. Фильм Скачать торрент  

Давай знакомиться. Фильм / Hello Ladies: The Movie

Год выпуска: 2014
Страна: США
Жанр: комедия
Продолжительность: 01:20:23
Перевод: Любительский (одноголосый) [Lord32x ] - перевод на русский язык[Михаил Васильев]
Режиссер: Стивен Мерчант
В ролях: Стивен Мерчант (Stuart Pritchard), Кристин Вудс (Jessica), Ванесса Энджел (Military Woman), Карли Крэйг (Carrie), Майкл Хайатт (HR Woman), Кевин Уайзман (Kives), Криста Флэнеган (Marion), Нейт Торренс (Wade), Джонни 5 (Bar Patron), Стефани Корнелиуссен (Tatiana Ludnova), Марки Адамс (Boat Model), Колин Оуэнс (Nikki's Boyfriend)
Описание:
Стюарт - благополучный, но слегка закомплексованный мужчина в самом расцвете сил. Он недавно расстался со своей подругой и переехал в Лос Анджелес. Когда его бывшая приезжает к нему в гости, он решает сделать все, чтобы произвести впечатление сверхуспешного человека: хвастается знакомствами со знаменитостями и достает приглашения на самые элитные вечеринки...
Рейтинг:

Качество: HDTVRip
Формат: AVI
Видео кодек: XviD
Аудио кодек:AC3
Видео: XviD, 720x400 (16:9), 2108 kbps, 23,976 fps, 0,305 bpp
Аудио: AC3 / 5.1 / 48 kHz / 384 kbps / 16 bit

Код:

General
Complete name                            : D:\Торенты\Hello.Ladies.The.Movie.2014.HDTVRip.1500MB.GIPERWAREZ.avi
Format                                   : AVI
Format/Info                              : Audio Video Interleave
File size                                : 1.46 GiB
Duration                                 : 1h 20mn
Overall bit rate                         : 2 605 Kbps
Writing application                      : VirtualDubMod 1.5.10.3 | www.virtualdub-fr.org || (build 2550/release)
Writing library                          : VirtualDubMod build 2550/release

Video
ID                                       : 0
Format                                   : MPEG-4 Visual
Format profile                           : Advanced Simple@L5
Format settings, BVOP                    : 1
Format settings, QPel                    : No
Format settings, GMC                     : No warppoints
Format settings, Matrix                  : Default (H.263)
Codec ID                                 : XVID
Codec ID/Hint                            : XviD
Duration                                 : 1h 20mn
Bit rate                                 : 2 109 Kbps
Width                                    : 720 pixels
Height                                   : 400 pixels
Display aspect ratio                     : 16:9
Frame rate                               : 23.976 fps
Color space                              : YUV
Chroma subsampling                       : 4:2:0
Bit depth                                : 8 bits
Scan type                                : Progressive
Compression mode                         : Lossy
Bits/(Pixel*Frame)                       : 0.305
Stream size                              : 1.18 GiB (81%)
Writing library                          : XviD 1.2.1 (UTC 2008-12-04)

Audio
ID                                       : 1
Format                                   : AC-3
Format/Info                              : Audio Coding 3
Mode extension                           : CM (complete main)
Codec ID                                 : 2000
Duration                                 : 1h 20mn
Bit rate mode                            : Constant
Bit rate                                 : 384 Kbps
Channel(s)                               : 6 channels
Channel positions                        : Front: L C R, Side: L R, LFE
Sampling rate                            : 48.0 KHz
Bit depth                                : 16 bits
Compression mode                         : Lossy
Stream size                              : 221 MiB (15%)
Alignment                                : Split accross interleaves

piratbit.pw



Скачать Давай знакомиться. Фильм через торрент http://i58.fastpic.ru/big/2015/0126/72/3f9ba12f8397752905ffeb0eca0f7272.jpg Скачать фильм Давай знакомиться. Фильм через торрент бесплантно в хорошем качестве Описание: Стюарт - благополучный, но слегка закомплексованный мужчина в самом расцвете сил. Он недавно расстался со своей подругой и ... 10 10 6
Торрент: Зарегистрирован [2015-01-26 15:46] · скачан: 171 раз
Статус: T временная
Размер: 1.46 GB
Как cкачать? Как скачать Давай знакомиться. Фильм через торрент | UTorrent

% Раздел Тема Автор DL S | L
Фильмы 2014 [DVDrip, WEB-DLRip, HDrip] [ 1.37 GB ] Давай знакомиться. Фильм / Hello Ladies: The Movie [2014 HDTVRip многоголосый [Amedia] Ворон Скачать
1 | 0

28-11-2019 20:33  

Отключить всю рекламу на сайте

    Дорогой пользователь! Огромная просьба, поблагодарите релизера, оцените раздачу и оставьте свои комментарий, если Вы скачали Давай знакомиться. Фильм через торрент бесплатно! Внесите свою лепту в развитие PiratBit!
    Комментировать посты могут только пользователи прошедшие не сложную регистрацию
    Показать сообщения:    

    Давай знакомиться. Фильм через торрент
    Скачать бесплатно Давай знакомиться. Фильм
    Давай знакомиться. Фильм скачать торрент
    Давай знакомиться. Фильм смотреть онлайн
    Cкачать фильм Давай знакомиться. Фильм бесплатно
    Давай знакомиться. Фильм скачать торрент в хорошем качестве
    Давай знакомиться. Фильм смотреть онлайн бесплатно в хорошем качестве


    Вы не можете начинать темы
    Вы не можете отвечать на сообщения
    Вы не можете редактировать свои сообщения
    Вы не можете удалять свои сообщения
    Вы не можете голосовать в опросах
    Вы не можете прикреплять файлы к сообщениям
    Вы можете скачивать файлы