1 сезон

3 сезон

iTunes

1

iTunes

DUB Netflix

iTunes

13

1 сезон

RePack

30

Deluxe

pack

Легкие деньги

ВАЖНО

ИГРА 18+

pack

RePack

MK11

RePack

jed

RePack

fifa19

RePack

RDR2

RePack

NEED FOR SPEED™ PAYBACK

4 сезон

9 сезон

Бесстыжие 9 сезон

Все сериалы

все сериалы на PB.wtf

RePack

FAR CRY 5

Anonymous, доброй ночи, мы не успеваем до 1 числа собрать деньги на оплату серверов, помогите нам пожалуйста в это трудное время. В качестве благодарности мы отключим Вам всю рекламу на сайте (укажите свой ник в строку Ваше имя)!

×
  
Magnet ссылка

Убежище / The Hideout (Денни Барнс / Denny Barnes, Кен Моралес / Ken Moralez) [2014, США, ужасы, боевик, триллер, WEB-DLRip) VO [Ворон] piratbit.pw

Убежище через торрент piratbit.pw

Размер: 1.35 GB | Добавлен: 6 лет 4 мес. назад | Торрент скачан:113 раз
Скачать  

25-01-2015 04:33 Убежище Скачать торрент  

Убежище / The Hideout
«Не доверяйте никому, даже себе...»


  • Год выпуска: 2014
  • Страна: США
  • Жанр: ужасы, боевик, триллер

  • Продолжительность: 01:17:07
  • Перевод: Любительский (одноголосый) [Ворон]

  • Режиссер: Денни Барнс / Denny Barnes, Кен Моралес / Ken Moralez
  • В ролях:

    Чжин-хи Чжон (News Reporter), Джефф Тренкл (Nelson), И. Элайджа Бауман (Hugo Duran), Энтони Фицджералд (Joey Numbers), Бритт Прентис (Hacksaw Henry), Пэт Лаззара (Cole), Майкл Джонс (Randal), Mel Wingfield (Russel), Карла Шорт (Homeless Lady), Heath Khan (Brian), Jonathan Carlander (Street Zombie), Трэйси Дьюкс (Bouncer)

  • Описание:
    Пять грабителей оказываются на заброшенной ферме после ограбления банка. Но не сумев поделить деньги, они разругиваются в пух и прах. И ко всему прочему начинается...зомби-эпидемия...
  • Рейтинг:



  • Качество: WEB-DLRip
  • Формат: :MKV
  • Видео кодек: XviD
  • Аудио кодек: MP3
  • Видео: 720x400 (16:9), 2087 kbps, 23,976 fps, 0,302 bpp
  • Аудио №1: Русский 2.0 / 48 kHz / 256 kbps / 16 bit
  • Аудио №2: Английский 2.0 / 44 kHz / 106 kbps / 16 bit
  • Релиз от: GEKADOL

    Код:

    General
    Unique ID                                : 246797530288535767731142086285432613248 (0xB9AB79B265456AD28C5881293D966980)
    Complete name                            : I:\The.Hideout.2014.WEB-DLRip.avi
    Format                                   : Matroska
    Format version                           : Version 2
    File size                                : 1.35 GiB
    Duration                                 : 1h 17mn
    Overall bit rate mode                    : Variable
    Overall bit rate                         : 2 500 Kbps
    Encoded date                             : UTC 2015-01-24 23:00:52
    Writing application                      : mkvmerge v5.0.1 ('Es ist Sommer') built on Oct 24 2011 19:45:06
    Writing library                          : libebml v1.2.2 + libmatroska v1.3.0

    Video
    ID                                       : 1
    Format                                   : MPEG-4 Visual
    Format profile                           : Advanced Simple@L5
    Format settings, BVOP                    : Yes
    Format settings, QPel                    : No
    Format settings, GMC                     : No warppoints
    Format settings, Matrix                  : Default (H.263)
    Codec ID                                 : XVID
    Codec ID/Hint                            : XviD
    Duration                                 : 1h 17mn
    Bit rate                                 : 2 088 Kbps
    Width                                    : 720 pixels
    Height                                   : 400 pixels
    Display aspect ratio                     : 16:9
    Frame rate                               : 23.976 fps
    Color space                              : YUV
    Chroma subsampling                       : 4:2:0
    Bit depth                                : 8 bits
    Scan type                                : Progressive
    Compression mode                         : Lossy
    Bits/(Pixel*Frame)                       : 0.302
    Stream size                              : 1.12 GiB (84%)
    Writing library                          : XviD 1.2.1 (UTC 2008-12-04)
    Default                                  : Yes
    Forced                                   : No

    Audio #1
    ID                                       : 2
    Format                                   : MPEG Audio
    Format version                           : Version 1
    Format profile                           : Layer 3
    Mode                                     : Joint stereo
    Muxing mode                              : Header stripping
    Codec ID                                 : A_MPEG/L3
    Codec ID/Hint                            : MP3
    Duration                                 : 1h 17mn
    Bit rate mode                            : Constant
    Bit rate                                 : 256 Kbps
    Channel(s)                               : 2 channels
    Sampling rate                            : 48.0 KHz
    Compression mode                         : Lossy
    Stream size                              : 141 MiB (10%)
    Default                                  : Yes
    Forced                                   : No

    Audio #2
    ID                                       : 3
    Format                                   : MPEG Audio
    Format version                           : Version 1
    Format profile                           : Layer 3
    Mode                                     : Joint stereo
    Mode extension                           : MS Stereo
    Muxing mode                              : Header stripping
    Codec ID                                 : A_MPEG/L3
    Codec ID/Hint                            : MP3
    Duration                                 : 1h 17mn
    Bit rate mode                            : Variable
    Bit rate                                 : 106 Kbps
    Nominal bit rate                         : 128 Kbps
    Channel(s)                               : 2 channels
    Sampling rate                            : 44.1 KHz
    Compression mode                         : Lossy
    Stream size                              : 58.6 MiB (4%)
    Writing library                          : LAME3.99
    Encoding settings                        : -m j -V 4 -q 2 -lowpass 17 --abr 128
    Default                                  : No
    Forced                                   : No




    Скриншоты:



    piratbit.pw



  • Скачать Убежище через торрент http://i64.fastpic.ru/big/2015/0125/ce/bf4a172128d123198dceb65b437f53ce.jpg Скачать фильм Убежище через торрент бесплантно в хорошем качестве Описание: Пять грабителей оказываются на заброшенной ферме после ограбления банка. Но не сумев поделить деньги, они разругиваются в пух и ... 6.6 10 8
    Торрент: Зарегистрирован [2015-01-25 04:33] · скачан: 113 раз
    Статус: T временная
    Размер: 1.35 GB
    Как cкачать? Как скачать Убежище через торрент | UTorrent

    28-11-2019 20:33  

    Отключить всю рекламу на сайте

    25-01-2015 08:14 Убежище Скачать торрент  

    серьезно?piratbit.pw



    26-01-2015 08:29 Убежище Скачать торрент  

    ахахаха такой сценарий развития событий я даже представить не мог!!! Ну да тупо грабануть банк и разасраться при дележке это как-то просто и глупо, а вот зомби-эпидемия сразу все поменяет и сделает фильм круче Аватара подумали режисеры аххааха
    Вывод: Денни Барнс и Кен Моралес паходу че-то жрут, вкалывают или глотают, чтобы снимать такой бред!piratbit.pw



      Дорогой пользователь! Огромная просьба, поблагодарите релизера, оцените раздачу и оставьте свои комментарий, если Вы скачали Убежище через торрент бесплатно! Внесите свою лепту в развитие PiratBit!
      Комментировать посты могут только пользователи прошедшие не сложную регистрацию
      Показать сообщения:    

      Убежище через торрент
      Скачать бесплатно Убежище
      Убежище скачать торрент
      Убежище смотреть онлайн
      Cкачать фильм Убежище бесплатно
      Убежище скачать торрент в хорошем качестве
      Убежище смотреть онлайн бесплатно в хорошем качестве


      Вы не можете начинать темы
      Вы не можете отвечать на сообщения
      Вы не можете редактировать свои сообщения
      Вы не можете удалять свои сообщения
      Вы не можете голосовать в опросах
      Вы не можете прикреплять файлы к сообщениям
      Вы можете скачивать файлы