Marvel's Avengers Deluxe Edition (супер цена) 159р. Внимание количество ограничено!!!

2 сезон

iTunes

iTunes

1

iTunes

iTunes

iTunes

WEBRip

iTunes

30
pack

Новость дня

ВАЖНО

!!Акция!!

Alien_RageХит недели

RePack

Horizon Zero Dawn

ИГРА 18+

pack

RePack

jed

!!Акция!!

Alien_Rage

RePack

fifa19

RePack

Assassins Creed: Odyssey

RePack

NEED FOR SPEED™ PAYBACK

4 сезон

9 сезон

Бесстыжие 9 сезон

Все сериалы

все сериалы на PB.wtf

RePack

FAR CRY 5
  

Звезда (Анна Меликян ) [2014, мелодрама, комедия, драма, WEB-DL 1080p] [iTunes Russia] piratbit.pw

Звезда через торрент piratbit.pw

Размер: 5.04 GB | Добавлен: 5 лет 7 мес. назад | Торрент скачан:183 раза
Скачать  

24-01-2015 16:34 Звезда Скачать торрент  


Звезда
«Любовь достойна жизни. Жизнь достойна любви»

Год выпуска:2014
Страна: Россия
Жанр:мелодрама, комедия, драма
Продолжительность:02:13:38
Перевод:Не требуется [iTunes Russia]]
Режиссер:Анна Меликян

  • В ролях:

    Тинатин Далакишвили (Маша), Северия Янушаускайте (Маргарита), Павел Табаков (Костя), Андрей Смоляков (Сергей Владимирович), Юозас Будрайтис, Александр Шейн, Арунас Сторпирстис (врач), Сергей Каплунов, Гоша Куценко, Филипп Янковский, Денис Шведов, Алиса Анненкова
  • Описание:
    Юная актриса - очаровательная и неуклюжая непосредственность, мечтающая стать настоящей звездой. Роскошная светская львица, жизнь которой в одно мгновение повисла на волоске. Её пятнадцатилетний приёмный сын, уставший от денег и притворства. Такие разные люди, такие тесно переплетенные судьбы...
    Изысканный юмор, нежная романтическая линия и драматичные повороты сюжета приведут нас к трогательной развязке, где каждый герой осознает, что для него значит истинное счастье.

  • Мировая премьера:13 октября 2014

    Качество: WEB-DL 1080p
    Формат:MKV
    Видео кодек: AVC
    Аудио кодек:AC3
    Видео: AVC, 1920x1080 (16:9), 4910 kbps, 24 fps, 0,099 bpp
    Аудио: русский / AC3 / 5.1 / 48 kHz / 384 kbps / 16 bit ||
    Навигация по главам: есть


    Код:

    General
    Unique ID                                : 205186912602012782340585318030994881001 (0x9A5D8FD9D5ED7CA6B33C32A35FA4B9E9)
    Complete name                            : D:\Торенты\Zvezda.2014.O.WEB-DL.1080p.mkv
    Format                                   : Matroska
    Format version                           : Version 4 / Version 2
    File size                                : 5.04 GiB
    Duration                                 : 2h 13mn
    Overall bit rate                         : 5 402 Kbps
    Encoded date                             : UTC 2015-01-22 09:55:36
    Writing application                      : mkvmerge v6.9.1 ('Blue Panther') 64bit built on Apr 18 2014 18:23:38
    Writing library                          : libebml v1.3.0 + libmatroska v1.4.1

    Video
    ID                                       : 1
    Format                                   : AVC
    Format/Info                              : Advanced Video Codec
    Format profile                           : High@L4.0
    Format settings, CABAC                   : Yes
    Format settings, ReFrames                : 4 frames
    Codec ID                                 : V_MPEG4/ISO/AVC
    Duration                                 : 2h 13mn
    Bit rate                                 : 4 911 Kbps
    Width                                    : 1 920 pixels
    Height                                   : 1 080 pixels
    Display aspect ratio                     : 16:9
    Frame rate                               : 24.000 fps
    Color space                              : YUV
    Chroma subsampling                       : 4:2:0
    Bit depth                                : 8 bits
    Scan type                                : Progressive
    Bits/(Pixel*Frame)                       : 0.099
    Stream size                              : 4.58 GiB (91%)
    Language                                 : English
    Default                                  : Yes
    Forced                                   : No
    Color primaries                          : BT.709-5, BT.1361, IEC 61966-2-4, SMPTE RP177
    Transfer characteristics                 : BT.709-5, BT.1361
    Matrix coefficients                      : BT.709-5, BT.1361, IEC 61966-2-4 709, SMPTE RP177

    Audio
    ID                                       : 2
    Format                                   : AC-3
    Format/Info                              : Audio Coding 3
    Mode extension                           : CM (complete main)
    Codec ID                                 : A_AC3
    Duration                                 : 2h 13mn
    Bit rate mode                            : Constant
    Bit rate                                 : 384 Kbps
    Channel(s)                               : 6 channels
    Channel positions                        : Front: L C R, Side: L R, LFE
    Sampling rate                            : 48.0 KHz
    Bit depth                                : 16 bits
    Compression mode                         : Lossy
    Stream size                              : 367 MiB (7%)
    Language                                 : Russian
    Default                                  : Yes
    Forced                                   : No

    Menu
    00:00:00.000                             : en:Глава 1
    00:05:23.000                             : en:Глава 2
    00:10:31.000                             : en:Глава 3
    00:15:54.000                             : en:Глава 4
    00:21:21.000                             : en:Глава 5
    00:26:43.000                             : en:Глава 6
    00:34:03.000                             : en:Глава 7
    00:41:27.000                             : en:Глава 8
    00:49:15.000                             : en:Глава 9
    00:57:26.000                             : en:Глава 10
    01:05:42.000                             : en:Глава 11
    01:12:52.000                             : en:Глава 12
    01:19:26.000                             : en:Глава 13
    01:26:35.000                             : en:Глава 14
    01:34:19.000                             : en:Глава 15
    01:41:14.000                             : en:Глава 16
    01:47:56.000                             : en:Глава 17
    01:55:08.000                             : en:Глава 18
    02:02:21.000                             : en:Глава 19
    02:07:25.000                             : en:Глава 20

    Скриншоты:

    Каталог Новинок (Фильмы-трейлеры, Игры, Сериалы, Мультфильмы)

    © Оформление by Ворон
    piratbit.pw



  • Скачать Звезда через торрент http://pic.kartinco.top/images/6/ordi9.jpg Скачать фильм Звезда через торрент бесплантно в хорошем качестве Описание:Юная актриса - очаровательная и неуклюжая непосредственность, мечтающая стать настоящей звездой. Роскошная светская львица, жизнь ... 6.4 10 7
    Торрент: Зарегистрирован [2015-01-24 16:34] · скачан: 183 раз
    Статус: T временная
    Размер: 5.04 GB
    Как cкачать? Как скачать Звезда через торрент | qTorrent

    % Раздел Тема Автор DL S | L
    TBS (пошаговые стратегии) [ 2.05 GB ] Космическая федерация II. Звезды страха [L] Shmel Скачать
    2 | 0
    Наши сериалы [ 4.21 GB ] Настоящие / [2011 SATRip] -=Cherry=- Скачать
    1 | 0
    Развлекательные телепередачи и шоу, приколы и юмор [ 13.77 GB ] Американская секс звезда / Jenna’s American Sex Star [ 2005-2006 Реалити-шоу HDTVRip 720p ] L_E_X Скачать
    1 | 0
    Гонзо [ 697 MB ] Sasha Grey Cock Star / Звезда Члена Sasha Grey [2010 Gonzo DVDRip] Shmel Скачать
    1 | 0
    Фильмы 2010 [ 731 MB ] Третья звезда / Third star [2010 DVDRip] coc900 Скачать
    1 | 0
    Большие сиськи [ 332 MB ] Порнозвезда и два простых парня / On The Bus [2012 Big Tits Brunette Pornstar SiteRip] orton Скачать
    1 | 0
    Фильмы 2010 [ 1.46 GB ] Третья звезда / Third Star [2010 DVDRip MVO [ лицензия ]] markfiter Скачать
    1 | 0

    28-11-2019 20:33  

    Отключить всю рекламу на сайте

      Дорогой пользователь! Огромная просьба, поблагодарите релизера, оцените раздачу и оставьте свои комментарий, если Вы скачали Звезда через торрент бесплатно! Внесите свою лепту в развитие PiratBit!
      Комментировать посты могут только пользователи прошедшие не сложную регистрацию
      Показать сообщения:    

      Звезда через торрент
      Скачать бесплатно Звезда
      Звезда скачать торрент
      Звезда смотреть онлайн
      Cкачать фильм Звезда бесплатно
      Звезда скачать торрент в хорошем качестве
      Звезда смотреть онлайн бесплатно в хорошем качестве


      Вы не можете начинать темы
      Вы не можете отвечать на сообщения
      Вы не можете редактировать свои сообщения
      Вы не можете удалять свои сообщения
      Вы не можете голосовать в опросах
      Вы не можете прикреплять файлы к сообщениям
      Вы можете скачивать файлы