Ссылка на приватное зеркало всего за 1$. Внимание количество ограничено!!!

iTunes

iTunes

iTunes

1

iTunes

iTunes

iTunes

iTunes

iTunes

30
pack

$ от Little Big

ВАЖНО

!!Акция!!

Alien_RageХит недели

RePack

Resident Evil 21

ИГРА 18+

pack

RePack

jed

!!Акция!!

Alien_Rage

RePack

fifa19

RePack

Assassins Creed: Odyssey

RePack

NEED FOR SPEED™ PAYBACK

4 сезон

9 сезон

Бесстыжие 9 сезон

Все сериалы

все сериалы на PB.wtf

RePack

FAR CRY 5
  

Звезда (Анна Меликян ) [2014, мелодрама, комедия, драма, WEB-DLRip] [iTunes Russia] piratbit.pw

Звезда через торрент piratbit.pw

Размер: 1.46 GB | Добавлен: 5 лет 5 мес. назад | Торрент скачан:447 раз
Скачать  

24-01-2015 16:30 Звезда Скачать торрент  


Звезда
«Любовь достойна жизни. Жизнь достойна любви»

Год выпуска:2014
Страна: Россия
Жанр:мелодрама, комедия, драма
Продолжительность:02:13:38
Перевод:Не требуется [iTunes Russia]
Режиссер:Анна Меликян

  • В ролях:

    Тинатин Далакишвили (Маша), Северия Янушаускайте (Маргарита), Павел Табаков (Костя), Андрей Смоляков (Сергей Владимирович), Юозас Будрайтис, Александр Шейн, Арунас Сторпирстис (врач), Сергей Каплунов, Гоша Куценко, Филипп Янковский, Денис Шведов, Алиса Анненкова
  • Описание:
    Юная актриса - очаровательная и неуклюжая непосредственность, мечтающая стать настоящей звездой. Роскошная светская львица, жизнь которой в одно мгновение повисла на волоске. Её пятнадцатилетний приёмный сын, уставший от денег и притворства. Такие разные люди, такие тесно переплетенные судьбы...
    Изысканный юмор, нежная романтическая линия и драматичные повороты сюжета приведут нас к трогательной развязке, где каждый герой осознает, что для него значит истинное счастье.

  • Мировая премьера:13 октября 2014

    Качество: WEB-DLRip
    Формат:AVI
    Видео кодек: XviD
    Аудио кодек:AC3
    Видео: XviD, 720x400 (16:9), 1255 kbps, 24 fps, 0,161 bpp
    Аудио: AC3 / 5.1 / 48 kHz / 384 kbps / 16 bit


    Код:

    General
    Complete name                            : D:\Торенты\Zvezda.2014.O.WEB-DRip.1.46GB.avi
    Format                                   : AVI
    Format/Info                              : Audio Video Interleave
    File size                                : 1.46 GiB
    Duration                                 : 2h 13mn
    Overall bit rate                         : 1 567 Kbps
    Writing application                      : VirtualDubMod 1.5.10.3 | www.virtualdub-fr.org || (build 2550/release)
    Writing library                          : VirtualDubMod build 2550/release

    Video
    ID                                       : 0
    Format                                   : MPEG-4 Visual
    Format profile                           : Advanced Simple@L5
    Format settings, BVOP                    : 2
    Format settings, QPel                    : No
    Format settings, GMC                     : No warppoints
    Format settings, Matrix                  : Default (MPEG)
    Codec ID                                 : XVID
    Codec ID/Hint                            : XviD
    Duration                                 : 2h 13mn
    Bit rate                                 : 1255 Kbps
    Width                                    : 720 pixels
    Height                                   : 400 pixels
    Display aspect ratio                     : 16:9
    Frame rate                               : 24.000 fps
    Color space                              : YUV
    Chroma subsampling                       : 4:2:0
    Bit depth                                : 8 bits
    Scan type                                : Progressive
    Compression mode                         : Lossy
    Bits/(Pixel*Frame)                       : 0.161
    Stream size                              : 1.04 GiB (71%)
    Writing library                          : XviD 1.2.1 (UTC 2008-12-04)

    Audio
    ID                                       : 1
    Format                                   : AC-3
    Format/Info                              : Audio Coding 3
    Mode extension                           : CM (complete main)
    Codec ID                                 : 2000
    Duration                                 : 2h 13mn
    Bit rate mode                            : Constant
    Bit rate                                 : 384 Kbps
    Channel(s)                               : 6 channels
    Channel positions                        : Front: L C R, Side: L R, LFE
    Sampling rate                            : 48.0 KHz
    Bit depth                                : 16 bits
    Compression mode                         : Lossy
    Stream size                              : 367 MiB (25%)
    Alignment                                : Split accross interleaves

    Скриншоты:

    Каталог Новинок (Фильмы-трейлеры, Игры, Сериалы, Мультфильмы)

    © Оформление by Ворон
    piratbit.pw



  • Скачать Звезда через торрент http://pic.kartinco.top/images/6/ordi9.jpg Скачать фильм Звезда через торрент бесплантно в хорошем качестве Описание:Юная актриса - очаровательная и неуклюжая непосредственность, мечтающая стать настоящей звездой. Роскошная светская львица, жизнь ... 9.1 10 11
    Торрент: Зарегистрирован [2015-01-24 16:30] · скачан: 447 раз
    Статус: √ проверено
    Размер: 1.46 GB
    Как cкачать? Как скачать Звезда через торрент | qTorrent

    % Раздел Тема Автор DL S | L
    TBS (пошаговые стратегии) [ 2.05 GB ] Космическая федерация II. Звезды страха [L] Shmel Скачать
    1 | 0
    Наши сериалы [ 4.21 GB ] Настоящие / [2011 SATRip] -=Cherry=- Скачать
    1 | 0
    Развлекательные телепередачи и шоу, приколы и юмор [ 13.77 GB ] Американская секс звезда / Jenna’s American Sex Star [ 2005-2006 Реалити-шоу HDTVRip 720p ] L_E_X Скачать
    1 | 0
    Гонзо [ 697 MB ] Sasha Grey Cock Star / Звезда Члена Sasha Grey [2010 Gonzo DVDRip] Shmel Скачать
    1 | 0
    Фильмы 2010 [ 731 MB ] Третья звезда / Third star [2010 DVDRip] coc900 Скачать
    1 | 0
    Большие сиськи [ 332 MB ] Порнозвезда и два простых парня / On The Bus [2012 Big Tits Brunette Pornstar SiteRip] orton Скачать
    1 | 0
    Фильмы 2010 [ 1.46 GB ] Третья звезда / Third Star [2010 DVDRip MVO [ лицензия ]] markfiter Скачать
    1 | 0

    28-11-2019 20:33  

    Отключить всю рекламу на сайте

    24-01-2015 18:15 Звезда Скачать торрент  

    фильм хороший)piratbit.pw



    24-01-2015 20:27 Звезда Скачать торрент  

    Фильм звезда-это фильм о советских разведчиках.А не это говно.piratbit.pw



    25-01-2015 04:52 Звезда Скачать торрент  

    что за сиськотрясы на первой фотке?piratbit.pw



      Дорогой пользователь! Огромная просьба, поблагодарите релизера, оцените раздачу и оставьте свои комментарий, если Вы скачали Звезда через торрент бесплатно! Внесите свою лепту в развитие PiratBit!
      Комментировать посты могут только пользователи прошедшие не сложную регистрацию
      Показать сообщения:    

      Звезда через торрент
      Скачать бесплатно Звезда
      Звезда скачать торрент
      Звезда смотреть онлайн
      Cкачать фильм Звезда бесплатно
      Звезда скачать торрент в хорошем качестве
      Звезда смотреть онлайн бесплатно в хорошем качестве


      Вы не можете начинать темы
      Вы не можете отвечать на сообщения
      Вы не можете редактировать свои сообщения
      Вы не можете удалять свои сообщения
      Вы не можете голосовать в опросах
      Вы не можете прикреплять файлы к сообщениям
      Вы можете скачивать файлы