1 сезон

3 сезон

iTunes

1

iTunes

DUB Netflix

iTunes

13

1 сезон

RePack

30

Deluxe

pack

Легкие деньги

ВАЖНО

ИГРА 18+

pack

RePack

MK11

RePack

jed

RePack

fifa19

RePack

RDR2

RePack

NEED FOR SPEED™ PAYBACK

4 сезон

9 сезон

Бесстыжие 9 сезон

Все сериалы

все сериалы на PB.wtf

RePack

FAR CRY 5

Anonymous, доброе утро, мы не успеваем до 1 числа собрать деньги на оплату серверов, помогите нам пожалуйста в это трудное время. В качестве благодарности мы отключим Вам всю рекламу на сайте (укажите свой ник в строку Ваше имя)!

×
  
Magnet ссылка

Ангар 10 / Hangar 10 (Дэниэл Симпсон / Daniel Simpson) [2014, Великобритания, ужасы, фантастика, триллер, WEB-DLRip) VO [Xixidok] piratbit.pw

Ангар 10 через торрент piratbit.pw

Размер: 1.49 GB | Добавлен: 6 лет 4 мес. назад | Торрент скачан:418 раз
Скачать  

24-01-2015 02:49 Ангар 10 Скачать торрент  

Ангар 10 / Hangar 10


  • Год выпуска: 2014
  • Страна: Великобритания
  • Жанр: ужасы, фантастика, триллер
  • Продолжительность: 01:27:36
  • Перевод: Любительский (одноголосый) [Дмитрий Грачев aka ХиХиДок] - по переводу [lgt]

  • Режиссер: Дэниэл Симпсон / Daniel Simpson
  • В ролях:

    Роберт Кертис (Gus), Эбби Солт (Sally, слухи), Дэнни Шейлер (Jake, слухи)

  • Описание:
    Через 33 года после печально известного инцидента с НЛО в Рендлшем Форест, трое энтузиастов отправляются на поиски золота в ту же область...
  • Рейтинг:



  • Качество: WEB-DLRip
  • Формат: :MKV
  • Видео кодек: XviD
  • Аудио кодек: AC3
  • Видео: 720x384 (1.875), 1624 kbps, 23,976 fps, 0,245 bpp
  • Аудио №1: Русский 5.1 / 48 kHz / 384 kbps / 16 bit
  • Аудио №2: Английский 5.1 / 48 kHz / 384 kbps / 16 bit
  • Релиз от: GEKADOL

    Код:

    General
    Unique ID                                : 212497316763373443478726539703843794831 (0x9FDD7E9A8B3A004C80BFF971BB6BAF8F)
    Complete name                            : I:\Hangar.10.2014.WEB-DLRip.avi
    Format                                   : Matroska
    Format version                           : Version 2
    File size                                : 1.49 GiB
    Duration                                 : 1h 27mn
    Overall bit rate                         : 2 441 Kbps
    Encoded date                             : UTC 2015-01-22 21:06:14
    Writing application                      : mkvmerge v5.0.1 ('Es ist Sommer') built on Oct 24 2011 19:45:06
    Writing library                          : libebml v1.2.2 + libmatroska v1.3.0

    Video
    ID                                       : 1
    Format                                   : MPEG-4 Visual
    Format profile                           : Advanced Simple@L5
    Format settings, BVOP                    : Yes
    Format settings, QPel                    : No
    Format settings, GMC                     : No warppoints
    Format settings, Matrix                  : Default (H.263)
    Codec ID                                 : XVID
    Codec ID/Hint                            : XviD
    Duration                                 : 1h 27mn
    Bit rate                                 : 1 624 Kbps
    Width                                    : 720 pixels
    Height                                   : 384 pixels
    Display aspect ratio                     : 1.875
    Frame rate                               : 23.976 fps
    Color space                              : YUV
    Chroma subsampling                       : 4:2:0
    Bit depth                                : 8 bits
    Scan type                                : Progressive
    Compression mode                         : Lossy
    Bits/(Pixel*Frame)                       : 0.245
    Stream size                              : 1 018 MiB (67%)
    Writing library                          : XviD 64
    Default                                  : Yes
    Forced                                   : No

    Audio #1
    ID                                       : 2
    Format                                   : AC-3
    Format/Info                              : Audio Coding 3
    Mode extension                           : CM (complete main)
    Muxing mode                              : Header stripping
    Codec ID                                 : A_AC3
    Duration                                 : 1h 27mn
    Bit rate mode                            : Constant
    Bit rate                                 : 384 Kbps
    Channel(s)                               : 6 channels
    Channel positions                        : Front: L C R, Side: L R, LFE
    Sampling rate                            : 48.0 KHz
    Bit depth                                : 16 bits
    Compression mode                         : Lossy
    Stream size                              : 241 MiB (16%)
    Default                                  : Yes
    Forced                                   : No

    Audio #2
    ID                                       : 3
    Format                                   : AC-3
    Format/Info                              : Audio Coding 3
    Mode extension                           : CM (complete main)
    Muxing mode                              : Header stripping
    Codec ID                                 : A_AC3
    Duration                                 : 1h 27mn
    Bit rate mode                            : Constant
    Bit rate                                 : 384 Kbps
    Channel(s)                               : 6 channels
    Channel positions                        : Front: L C R, Side: L R, LFE
    Sampling rate                            : 48.0 KHz
    Bit depth                                : 16 bits
    Compression mode                         : Lossy
    Stream size                              : 241 MiB (16%)
    Default                                  : No
    Forced                                   : No




    Скриншоты:



    piratbit.pw



  • Скачать Ангар 10 через торрент http://i64.fastpic.ru/big/2015/0124/3b/1a9f00a5b861831f37ea29b9e707c43b.jpg Скачать фильм Ангар 10 через торрент бесплантно в хорошем качестве Описание: Через 33 года после печально известного инцидента с НЛО в Рендлшем Форест, трое энтузиастов отправляются на поиски золота в ту же ... 9.6 10 10
    Торрент: Зарегистрирован [2015-01-24 02:49] · скачан: 418 раз
    Статус: T временная
    Размер: 1.49 GB
    Как cкачать? Как скачать Ангар 10 через торрент | UTorrent

    % Раздел Тема Автор DL S | L
    Фильмы [HD 720p, 1080p] (Хороший звук DUB, MVO) [ 8.25 GB ] Ангар 18 / Hangar 18 [1980 биография BDRip 1080p by keeper.52] DUB + DVO + AVO + Original keeper.52 Скачать
    2 | 0
    Фильмы (Blu-ray, BD-Remux, HDDVD) [ 19.49 GB ] Ангар 18 / Hangar 18 [1980 биография BDRemux 1080p by keeper.52] DUB + DVO + AVO + Original keeper.52 Скачать
    2 | 0
    T Фильмы (WEB-DL 720p, 1080p) [ 2.92 GB ] Ангар 10 / Hangar 10 [2014 WEB-DL 720p) VO [Xixidok] GEKADOL Скачать
    1 | 0

    28-11-2019 20:33  

    Отключить всю рекламу на сайте

    24-01-2015 19:17 Ангар 10 Скачать торрент  

    постер о многом говорит - металоискатель направлен на летающие тарелки.piratbit.pw



    25-01-2015 08:00 Ангар 10 Скачать торрент  

    Sergej001 писал(а):

    постер о многом говорит - металоискатель направлен на летающие тарелки.

    :D :-D =D :^Dpiratbit.pw



    28-01-2015 11:27 Ангар 10 Скачать торрент  

    Не фильм, а х...ня! Жаль потраченного времени!piratbit.pw



      Дорогой пользователь! Огромная просьба, поблагодарите релизера, оцените раздачу и оставьте свои комментарий, если Вы скачали Ангар 10 через торрент бесплатно! Внесите свою лепту в развитие PiratBit!
      Комментировать посты могут только пользователи прошедшие не сложную регистрацию
      Показать сообщения:    

      Ангар 10 через торрент
      Скачать бесплатно Ангар 10
      Ангар 10 скачать торрент
      Ангар 10 смотреть онлайн
      Cкачать фильм Ангар 10 бесплатно
      Ангар 10 скачать торрент в хорошем качестве
      Ангар 10 смотреть онлайн бесплатно в хорошем качестве


      Вы не можете начинать темы
      Вы не можете отвечать на сообщения
      Вы не можете редактировать свои сообщения
      Вы не можете удалять свои сообщения
      Вы не можете голосовать в опросах
      Вы не можете прикреплять файлы к сообщениям
      Вы можете скачивать файлы