1 сезон

1 сезон

iTunes

1

КиноПоиск HD

Кинопоиск HD

iTunes

13

1 сезон

RePack

30

Новинка

ВАЖНО

ИГРА 18+

pack

RePack

MK11
pack

Легкие деньги

RePack

jed

RePack

fifa19

RePack

RDR2

RePack

NEED FOR SPEED™ PAYBACK

4 сезон

9 сезон

Бесстыжие 9 сезон

Все сериалы

все сериалы на PB.wtf

RePack

FAR CRY 5
  
Magnet ссылка

Ограбление по-американски / American Heist (Сарик Андреасян) [2014 г., триллер, криминал, драма, боевик, WEB-DLRip, Авторский (Яковлев)] piratbit.pw

Ограбление по-американски через торрент piratbit.pw

Размер: 745 MB | Добавлен: 6 лет 2 мес. назад | Торрент скачан:357 раз
Скачать  

23-01-2015 17:21 Ограбление по-американски Скачать торрент  

Ограбление по-американски / American Heist
Год выпуска: 2014
Страна: США, Россия
Жанр: триллер, криминал, драма, боевик
Продолжительность: 91 мин. / 01:30:53
Перевод: Авторский (Яковлев)
Субтитры: отсутствуют

Режиссер: Сарик Андреасян
Продюссер: Тоув Кристенсен, Георгий Малков, Сарик Андреасян
Сценарий: Рауль Инглис

Бюджет: 11 сентября 2014
Премьера в мире: 11 сентября 2014

16+
IMDB 7.50 (663)



В ролях: Хейден Кристенсен, Эдриан Броуди, Джордана Брюстер, Эйкон, Тори Киттлз, Луис Да Силва мл., Лэнс Э. Николс, Джон МакКоннелл, Джо Крест, Аарон В. Уильямсон, Александр Гаврилин, Юрий Деркач, Ирина Киреева, Михаил Белякович, Илья Исаев

Описание: У Джеймса темное прошлое, но сейчас он из всех сил пытается изменить свою жизнь — встречается с красивой девушкой, устроился работать автомехаником, мечтает о собственном бизнесе. Тем временем, его старший брат Френки, отсидевший десять лет в тюрьме, выходит на свободу. Френки пытается наладить отношения, но Джеймс не может простить брата за то, что много лет назад он втянул его в криминал, из-за чего Джеймс отсидел шестнадцать месяцев.Однако попытки Джеймса начать новую жизнь не складываются: из-за тюремного прошлого он не может рассчитывать на хорошую работу и получает отказы в кредитовании своего бизнеса. Видя это, Френки предлагает Джеймсу «провести небольшое дельце». Он клянется, что это в последний раз и после ограбления банка в Новом Орлеане у них будут деньги, и они вернут свою жизнь, которую когда-то потеряли. В результате «небольшое дельце» станет одним из самых кровавых и драматических налетов в истории Америки...

Качество: WEB-DLRip
Формат: AVI
Видео кодек: XviD
Аудио кодек: MP3
Видео: MPEG4, XviD, 720x304 (2.35:1), 25.000 fps, 1 008 Kbps (0.184 bit/pixel)
Аудио#1: MP3, 48.0 KHz, 2 ch, 128 Kbps, CBR
Релиз от:
Формат : AVI
Формат/Информация : Audio Video Interleave
Размер файла : 745 Мбайт
Продолжительность : 1 ч. 30 м.
Общий поток : 1146 Кбит/сек
Программа кодирования : VirtualDubMod 1.5.10.3 | www.virtualdub-fr.org || (build 2550/release)
Библиотека кодирования : VirtualDubMod build 2550/release

Видео
Идентификатор : 0
Формат : MPEG-4 Visual
Профиль формата : Advanced Simple@L5
Параметр BVOP формата : 1
Параметр QPel формата : Нет
Параметр GMC формата : Без точки перехода
Параметр матрицы формата : Default (MPEG)
Идентификатор кодека : XVID
Идентификатор кодека/Подсказка : XviD
Продолжительность : 1 ч. 30 м.
Битрейт : 1008 Кбит/сек
Ширина : 720 пикселей
Высота : 304 пикселя
Соотношение сторон : 2,35:1
Частота кадров : 25,000 кадров/сек
Цветовое пространство : YUV
Субдискретизация насыщенности : 4:2:0
Битовая глубина : 8 бит
Тип развёртки : Прогрессивная
Метод сжатия : С потерями
Бит/(Пиксели*Кадры) : 0.184
Размер потока : 655 Мбайт (88%)
Библиотека кодирования : XviD 73

Аудио
Идентификатор : 1
Формат : MPEG Audio
Версия формата : Version 1
Профиль формата : Layer 3
Идентификатор кодека : 55
Идентификатор кодека/Подсказка : MP3
Продолжительность : 1 ч. 30 м.
Вид битрейта : Постоянный
Битрейт : 128 Кбит/сек
Каналы : 2 канала
Частота : 48,0 КГц
Метод сжатия : С потерями
Размер потока : 83,2 Мбайт (11%)
Выравнивание : Соединение по промежуткам
Продолжительность промежутка : 40 мс. (1,00 видеокадр)
Время предзагрузки промежутка : 504 мс.
Библиотека кодирования : LAME3.99r
Настройки программы : -m s -V 4 -q 2 -lowpass 17 -b 128


Ограбление по-американски скачать торрент


piratbit.pw



Скачать Ограбление по-американски через торрент https://pic.kartinco.top/images/8/yq7hl.jpg Скачать фильм Ограбление по-американски через торрент бесплантно в хорошем качестве Описание: У Джеймса темное прошлое, но сейчас он из всех сил пытается изменить свою жизнь — встречается с красивой девушкой, устроился ... 9.4 10 8
Торрент: Зарегистрирован [2015-01-23 17:21] · скачан: 357 раз
Статус: √ проверено
Размер: 745 MB
Как cкачать? Как скачать Ограбление по-американски через торрент | UTorrent

% Раздел Тема Автор DL S | L
Фильмы 2014 [DVDrip, WEB-DLRip, HDrip] [ 2.31 GB ] Ограбление по-американски / American Heist [2014 BDRip-AVC] - [] - ExKinoRay Enigma2010 Скачать
1 | 0
Фильмы 2014 [DVDrip, WEB-DLRip, HDrip] [ 1.46 GB ] Ограбление по-американски / American Heist [2014 BDRip] - [] Twi7ter Скачать
1 | 0
Фильмы [HD 720p, 1080p] (Хороший звук DUB, MVO) [ 10.66 GB ] Ограбление по-американски / American Heist [2014 BDRip 1080p ] Ворон Скачать
1 | 0
Фильмы [HD 720p, 1080p] (Хороший звук DUB, MVO) [ 6.82 GB ] Ограбление по-американски / American Heist [2014 BDRip 720p ] Ворон Скачать
1 | 0
Фильмы 2014 [DVDrip, WEB-DLRip, HDrip] [ 1.46 GB ] Ограбление по-американски / American Heist [2014 HDRip ] Ворон Скачать
1 | 0
T Фильмы с авторской озвучкой [ 2.7 GB ] Ограбление по-американски / American Heist [2014 WEB-DL 720p Авторский Ворон Скачать
1 | 0

28-11-2019 20:33  

Отключить всю рекламу на сайте

23-01-2015 17:56 Ограбление по-американски Скачать торрент  

Друзья ходили в кинотеатр - фильм понравился, хоть и рейтинг маленький, смотреть надо говорят. Один раз)piratbit.pw





Последний раз редактировалось: Crihsler (2015-01-23 18:20), всего редактировалось 3 раз(а)

23-01-2015 17:59 Ограбление по-американски Скачать торрент  

все так ругают-надо глянуть-чтобы быть осведомленным в этом изделии кинотворчестваpiratbit.pw



23-01-2015 20:35 Ограбление по-американски Скачать торрент  

фильм на 3piratbit.pw



23-01-2015 20:51 Ограбление по-американски Скачать торрент  

Сарику Андреасяну пришлось снять кучу качественных комедий, что бы в итоге снять не менее качественный боевик, браво маэстро.piratbit.pw



24-01-2015 00:10 Ограбление по-американски Скачать торрент  

как-то жизненно)piratbit.pw



24-01-2015 12:10 Ограбление по-американски Скачать торрент  

как фильм ? стоит качать ?piratbit.pw



    Дорогой пользователь! Огромная просьба, поблагодарите релизера, оцените раздачу и оставьте свои комментарий, если Вы скачали Ограбление по-американски через торрент бесплатно! Внесите свою лепту в развитие PiratBit!
    Комментировать посты могут только пользователи прошедшие не сложную регистрацию
    Показать сообщения:    

    Ограбление по-американски через торрент
    Скачать бесплатно Ограбление по-американски
    Ограбление по-американски скачать торрент
    Ограбление по-американски смотреть онлайн
    Cкачать фильм Ограбление по-американски бесплатно
    Ограбление по-американски скачать торрент в хорошем качестве
    Ограбление по-американски смотреть онлайн бесплатно в хорошем качестве


    Вы не можете начинать темы
    Вы не можете отвечать на сообщения
    Вы не можете редактировать свои сообщения
    Вы не можете удалять свои сообщения
    Вы не можете голосовать в опросах
    Вы не можете прикреплять файлы к сообщениям
    Вы можете скачивать файлы