Ссылка на приватное зеркало нашего сайта всего за 1$. Внимание количество ограничено!!!

2 сезон

iTunes

1 сезон

1

iTunes

iTunes

iTunes

1 сезон

RePack

30

ИГРА 18+

pack

ВАЖНО

!!Акция!!

Alien_RageХит недели

RePack

MK11
pack

Забери бонус

RePack

jed

!!Акция!!

Alien_Rage

RePack

fifa19

RePack

Assassins Creed: Odyssey

RePack

NEED FOR SPEED™ PAYBACK

4 сезон

9 сезон

Бесстыжие 9 сезон

Все сериалы

все сериалы на PB.wtf

RePack

FAR CRY 5
  

Спешите любить (Максим Демченко) [2014, Мелодрама,WEB-DLRip] piratbit.pw

Спешите любить через торрент piratbit.pw

Размер: 745 MB | Добавлен: 5 лет 9 мес. назад | Торрент скачан:633 раза
Скачать  

21-01-2015 09:18 Спешите любить Скачать торрент  



Информация о фильме

Название: Спешите любить

Год выхода: 2014

Выпущено: Россия, Телефильм продакшн

Продолжительность: 01:27:58

Перевод: Не требуется

Жанр: Мелодрама

Режиссёр: Максим Демченко

В ролях: Павел Трубинер, Светлана Иванова, Юлия Мельникова, Кирилл Плетнёв, Владимир Стержаков, Юлия Стожарова

Описание: Летчик Антон отстранен от полетов: из-за развода с женой у него началась неврастения. Жена-стюардесса не хочет оставлять с ним дочку Киру, даже когда сама в рейсе, поэтому Антон забирает ребенка тайком и переезжает в коммуналку. Соседнюю комнату снимает Ася, привыкшая к роскоши, но бросившая богатого мужа, который ей изменил. Атмосфера в квартире напряженная: ни Антон, ни Ася не привыкли к столь тесному соседству. Поначалу они даже воюют и делают друг другу мелкие пакости, но путь от ненависти до любви будет недолгим. И вот уже Ася заботится о маленькой Кире, как о родной, а влюбленный Антон забывает про все заботы. Жили бы они счастливо, если бы раскаявшийся супруг не появился вновь на горизонте Аси, и если бы жена Антона не отобрала у него дочь. За любовь нужно бороться, и героям предстоят тяжелые бои.



Файл

Качество: WEB-DLRip
Формат: AVI
Видео кодек: XviD
Аудио кодек: MP3
Видео: XviD, 1047 Кбит/с, 656x368 (16:9), 25 кадр/с

Аудио: Русский, MP3, 48000 Гц, 128 Кбит/с, 2 канала (Стерео)

General

Complete name : Speshite.lybit'.2014.WEB-DLRip.745MB.avi

Format : AVI

Format/Info : Audio Video Interleave

File size : 745 MiB

Duration : 1h 27mn

Overall bit rate : 1 185 Kbps

Writing application : VirtualDubMod 1.5.10.3 (build 2550/release)

Writing library : VirtualDubMod build 2550/release

Copyright : rip by ivandubskoj

Video

ID : 0

Format : MPEG-4 Visual

Format profile : Advanced Simple@L5

Format settings, BVOP : 2

Format settings, QPel : No

Format settings, GMC : No warppoints

Format settings, Matrix : Custom

Codec ID : XVID

Codec ID/Hint : XviD

Duration : 1h 27mn

Bit rate : 1 047 Kbps

Width : 656 pixels

Height : 368 pixels

Display aspect ratio : 16:9

Frame rate : 25.000 fps

Color space : YUV

Chroma subsampling : 4:2:0

Bit depth : 8 bits

Scan type : Progressive

Compression mode : Lossy

Bits/(Pixel*Frame) : 0.173

Stream size : 659 MiB (88%)

Writing library : XviD 73

Audio

ID : 1

Format : MPEG Audio

Format version : Version 1

Format profile : Layer 3

Codec ID : 55

Codec ID/Hint : MP3

Duration : 1h 27mn

Bit rate mode : Constant

Bit rate : 128 Kbps

Channel(s) : 2 channels

Sampling rate : 48.0 KHz

Compression mode : Lossy

Stream size : 80.5 MiB (11%)

Alignment : Aligned on interleaves

Interleave, duration : 40 ms (1.00 video frame)

Interleave, preload duration : 504 ms

Writing library : LAME3.99r

Encoding settings : -m s -V 4 -q 0 -lowpass 17 -b 128
Автор рипа - ivandubskoj
piratbit.pw



Скачать Спешите любить через торрент http://i66.fastpic.ru/big/2015/0121/68/0a1aa27e798dcab4582bd5b5a498d868.jpg Скачать фильм Спешите любить через торрент бесплантно в хорошем качестве Описание: Летчик Антон отстранен от полетов: из-за развода с женой у него началась неврастения. Жена-стюардесса не хочет оставлять с ним ... 9.4 10 12
Торрент: Зарегистрирован [2015-01-21 09:18] · скачан: 633 раз
Статус: √ проверено
Размер: 745 MB
Как cкачать? Как скачать Спешите любить через торрент | qTorrent

% Раздел Тема Автор DL S | L
Фильмы (WEB-DL 720p, 1080p) [ 11.26 GB ] Спеши любить / A Walk to Remember [2002 WEB-DL 1080p] [Open Matte] + [MVO] + [VO] killermax2013 Скачать
1 | 0
Наши фильмы (HD, WEB-DL 720p, 1080p) [ 1.7 GB ] Спешите любить [2014 WEB-DL 720p] smaster Скачать
1 | 0
Наши фильмы (HD, WEB-DL 720p, 1080p) [ 2.13 GB ] Спешите любить [2014 WEB-DL 1080p] smaster Скачать
1 | 0
Фильмы 2001-2005 [ 2.18 GB ] Спеши любить / A Walk to Remember [2002 BDRip] DUB Ворон Скачать
1 | 0
Фильмы 2001-2005 [ 2.01 GB ] Спеши любить / Памятная прогулка / A Walk to Remember [2001 HDTVRip-AVC] Romeo0502 Скачать
1 | 0
Фильмы (WEB-DL 720p, 1080p) [ 9.92 GB ] Спеши любить / Памятная прогулка / A Walk To Remember [2002 HDTV 1080p] DUB + MVO + VO + Original + Sub rus eng AARRSSEENN Скачать
1 | 0
Фильмы 2001-2005 [ 4.96 GB ] Спеши любить / A Walk to Remember [ 2002Мело BDRip] [720p] stalonе Скачать
1 | 0

28-11-2019 20:33  

Отключить всю рекламу на сайте

    Дорогой пользователь! Огромная просьба, поблагодарите релизера, оцените раздачу и оставьте свои комментарий, если Вы скачали Спешите любить через торрент бесплатно! Внесите свою лепту в развитие PiratBit!
    Комментировать посты могут только пользователи прошедшие не сложную регистрацию
    Показать сообщения:    

    Спешите любить через торрент
    Скачать бесплатно Спешите любить
    Спешите любить скачать торрент
    Спешите любить смотреть онлайн
    Cкачать фильм Спешите любить бесплатно
    Спешите любить скачать торрент в хорошем качестве
    Спешите любить смотреть онлайн бесплатно в хорошем качестве


    Вы не можете начинать темы
    Вы не можете отвечать на сообщения
    Вы не можете редактировать свои сообщения
    Вы не можете удалять свои сообщения
    Вы не можете голосовать в опросах
    Вы не можете прикреплять файлы к сообщениям
    Вы можете скачивать файлы