1 сезон

1 сезон

iTunes

1

КиноПоиск HD

Кинопоиск HD

iTunes

13

1 сезон

RePack

30

Ultimate

ВАЖНО

ИГРА 18+

pack

RePack

MK11
pack

Легкие деньги

RePack

jed

RePack

fifa19

RePack

RDR2

RePack

NEED FOR SPEED™ PAYBACK

4 сезон

9 сезон

Бесстыжие 9 сезон

Все сериалы

все сериалы на PB.wtf

RePack

FAR CRY 5
  
Magnet ссылка

Бабадук / The Babadook (Дженнифер Кент) [2014 г., ужасы, триллер, драма, WEB-DL 720p, Авторский (А. Матвеев)] piratbit.pw

Бабадук через торрент piratbit.pw

Размер: 3.11 GB | Добавлен: 6 лет 3 мес. назад | Торрент скачан:114 раз
Скачать  

16-11-2014 18:40 Бабадук Скачать торрент  

Бабадук / The Babadook
Год выпуска: 2014
Страна: Австралия
Жанр: ужасы, триллер, драма
Продолжительность: 01:33:34
Перевод: Авторский (А. Матвеев)
Субтитры: English, Русские - отдельно

Режиссер: Дженнифер Кент
Продюссер: Кристина Кейтон, Кристиан Мольере, Pete Best
Сценарий: Дженнифер Кент
Премьера в мире: 17 января 2014

IMDB 7.20 (1603)


В ролях: Эсси Дэвис, Ной Вайсман, Хейли МакЭлхинни, Дэниэл Хеншэлл, Барбара Уэст, Бенжамин Винспер, Тиффани Линдолл-Найт, Tim Purcell, Крэйг Бехенна, Кармел Джонсон

Описание: Овдовевшую женщину с шестилетним сыном начинает преследовать монстр Бабадук — герой из рассказов-ужасов. Поначалу нервное и странное поведение матери и сына кажется объяснимым для окружающих — без мужской поддержки прожить им сложно. Но вскоре открываются истинные причины, ведь по ночам к ним является Бабадук, чтобы напугать до смерти...

Качество: WEB-DL 720p
Формат: MKV
Видео кодек: AVC
Аудио кодек: AC3
Видео: 1280x534 at 23.976 fps, MPEG-4 AVC, ~3903 kbps avg
Аудио#1: Russian: 48 kHz, AC3, 3/2 (L,C,R,l,r) + LFE ch, ~384.00 kbps avg |Одноголосый закадровый, А. Матвеев|
Аудио#2: English: 48 kHz, AC3, 3/2 (L,C,R,l,r) + LFE ch, ~384.00 kbps avg
General
Unique ID : 208697810325678346943471182030918470056 (0x9D01BC79237632FA832043D7750D49A8)
Complete name : /home/sb1855/files/The.Babadook.2014.720p.WEB-DL.Rus.Eng.HDCLUB.mkv
Format : Matroska
Format version : Version 2
File size : 3.11 GiB
Duration : 1h 33mn
Overall bit rate : 4 758 Kbps
Movie name : The Babadook (2014) - Release for HDCLUB
Encoded date : UTC 2014-11-16 11:15:07
Writing application : mkvmerge v3.4.0 ('Rapunzel') built on May 15 2010 09:38:20
Writing library : libebml v0.8.0 + libmatroska v0.9.0

Video
ID : 1
Format : AVC
Format/Info : Advanced Video Codec
Format profile : Main@L3.1
Format settings, CABAC : No
Format settings, ReFrames : 2 frames
Codec ID : V_MPEG4/ISO/AVC
Duration : 1h 33mn
Bit rate : 3 896 Kbps
Width : 1 280 pixels
Height : 544 pixels
Display aspect ratio : 2.35:1
Frame rate : 23.976 fps
Color space : YUV
Chroma subsampling : 4:2:0
Bit depth : 8 bits
Scan type : Progressive
Bits/(Pixel*Frame) : 0.233
Stream size : 2.55 GiB (82%)
Title : The Babadook (2014) - Release for HDCLUB
Language : English
Default : No
Forced : No
Color primaries : BT.709-5, BT.1361, IEC 61966-2-4, SMPTE RP177
Transfer characteristics : BT.709-5, BT.1361
Matrix coefficients : BT.709-5, BT.1361, IEC 61966-2-4 709, SMPTE RP177

Audio #1
ID : 2
Format : AC-3
Format/Info : Audio Coding 3
Mode extension : CM (complete main)
Format settings, Endianness : Big
Codec ID : A_AC3
Duration : 1h 33mn
Bit rate mode : Constant
Bit rate : 384 Kbps
Channel(s) : 6 channels
Channel positions : Front: L C R, Side: L R, LFE
Sampling rate : 48.0 KHz
Bit depth : 16 bits
Compression mode : Lossy
Stream size : 257 MiB (8%)
Title : AC3 5.1 @ 384 kbps, VO - A.Matveev
Language : Russian
Default : Yes
Forced : No

Audio #2
ID : 3
Format : AC-3
Format/Info : Audio Coding 3
Mode extension : CM (complete main)
Format settings, Endianness : Big
Codec ID : A_AC3
Duration : 1h 33mn
Bit rate mode : Constant
Bit rate : 384 Kbps
Channel(s) : 6 channels
Channel positions : Front: L C R, Side: L R, LFE
Sampling rate : 48.0 KHz
Bit depth : 16 bits
Compression mode : Lossy
Stream size : 257 MiB (8%)
Title : AC3 5.1 @ 384 kbps
Language : English
Default : No
Forced : No

Text
ID : 4
Format : UTF-8
Codec ID : S_TEXT/UTF8
Codec ID/Info : UTF-8 Plain Text
Language : English
Default : No
Forced : No

Menu
00:00:00.000 : en:1
00:15:00.000 : en:2
00:30:00.000 : en:3
00:45:00.000 : en:4
01:00:00.000 : en:5
01:15:00.000 : en:6
01:30:13.000 : en:7

piratbit.pw



Скачать Бабадук через торрент https://pic.kartinco.top/images/8/axr2e.jpg Скачать фильм Бабадук через торрент бесплантно в хорошем качестве Описание: Овдовевшую женщину с шестилетним сыном начинает преследовать монстр Бабадук — герой из рассказов-ужасов. Поначалу нервное и ... 8.4 10 15
Торрент: Зарегистрирован [2015-01-20 19:59] · скачан: 114 раз
Статус: √ проверено
Размер: 3.11 GB
Как cкачать? Как скачать Бабадук через торрент | UTorrent

% Раздел Тема Автор DL S | L
Фильмы 2014 [DVDrip, WEB-DLRip, HDrip] [ 1.46 GB ] Бабадук / The Babadook [2014 BDRip] - [] Twi7ter Скачать
1 | 0
Фильмы [HD 720p, 1080p] (Хороший звук DUB, MVO) [ 4.48 GB ] Бабадук / The Babadook [2014 BDRip 720p [НТВ Ворон Скачать
1 | 0
Фильмы 2014 [DVDrip, WEB-DLRip, HDrip] [ 2.14 GB ] Бабадук / The Babadook [2014 BDRip-AVC от HELLYWOOD / [НТВ Ворон Скачать
1 | 0
Фильмы с авторской озвучкой [ 1.43 GB ] Бабадук / The Babadook [2014 WEB-DLRip Авторский ] makarevich Скачать
1 | 0
Фильмы с авторской озвучкой [ 744 MB ] Бабадук / The Babadook [2014 WEB-DLRip] АVO khagkfgkahgaer Скачать
1 | 0
Фильмы без перевода [ 1.43 GB ] Бабадук / The Babadook [2014 WEB-DLRip Оригинал] makarevich Скачать
1 | 0


Последний раз редактировалось: кэп (2014-11-16 19:22), всего редактировалось 1 раз

28-11-2019 20:33  

Отключить всю рекламу на сайте

16-11-2014 18:50 Бабадук Скачать торрент  

СПАСИБО - КЭП! Оперативненько! ..ща глянем сие творениеpiratbit.pw



20-01-2015 20:43 Бабадук Скачать торрент  

а где СЭМПЛ???piratbit.pw



20-01-2015 21:08 Бабадук Скачать торрент  

для детей 3-5 лет страшилка))piratbit.pw



16-06-2015 19:29 Бабадук Скачать торрент  

Никаких детей,нормальная страшилка.piratbit.pw



    Дорогой пользователь! Огромная просьба, поблагодарите релизера, оцените раздачу и оставьте свои комментарий, если Вы скачали Бабадук через торрент бесплатно! Внесите свою лепту в развитие PiratBit!
    Комментировать посты могут только пользователи прошедшие не сложную регистрацию
    Показать сообщения:    

    Бабадук через торрент
    Скачать бесплатно Бабадук
    Бабадук скачать торрент
    Бабадук смотреть онлайн
    Cкачать фильм Бабадук бесплатно
    Бабадук скачать торрент в хорошем качестве
    Бабадук смотреть онлайн бесплатно в хорошем качестве


    Вы не можете начинать темы
    Вы не можете отвечать на сообщения
    Вы не можете редактировать свои сообщения
    Вы не можете удалять свои сообщения
    Вы не можете голосовать в опросах
    Вы не можете прикреплять файлы к сообщениям
    Вы можете скачивать файлы