1 сезон

3 сезон

iTunes

1

iTunes

DUB Netflix

iTunes

13

1 сезон

RePack

30

Deluxe

pack

Легкие деньги

ВАЖНО

ИГРА 18+

pack

RePack

MK11

RePack

jed

RePack

fifa19

RePack

RDR2

RePack

NEED FOR SPEED™ PAYBACK

4 сезон

9 сезон

Бесстыжие 9 сезон

Все сериалы

все сериалы на PB.wtf

RePack

FAR CRY 5

Anonymous, добрый вечер, мы не успеваем до 1 числа собрать деньги на оплату серверов, помогите нам пожалуйста в это трудное время. В качестве благодарности мы отключим Вам всю рекламу на сайте (укажите свой ник в строку Ваше имя)!

×
  
Magnet ссылка

Азбука смерти 2 / The ABCs of Death 2 (Родни Ашер , Джулиан Бэррэтт , Robert Boocheck ) [2014, ужасы, комедия, HDRip, Любительский (двухголосый) [den904, DeadSno] piratbit.pw

Азбука смерти 2 через торрент piratbit.pw

Размер: 2.06 GB | Добавлен: 6 лет 4 мес. назад | Торрент скачан:190 раз
Скачать  

20-01-2015 10:15 Азбука смерти 2 Скачать торрент  


Азбука смерти 2 / The ABCs of Death 2

«Some people never learn»

Год выпуска:2014
Страна:США, Новая Зеландия, Канада, Израиль, Япония
Жанр:ужасы, комедия
Продолжительность: 02:02:11
Перевод:Любительский (двухголосый) [den904, DeadSno]
Режиссер:Родни Ашер , Джулиан Бэррэтт , Robert Boocheck
В ролях:

Тристан Риск, Мартина Гарсия, Беатрис Даль (Grandmother (segment 'X is for Xylophone')), Лоуренс Р. Харви (wanker (segment 'T' / 'Wanker')), Джерод Мигер (Dylan (segment 'V')), Энди Найман, С. Эрнст Харт (Porn Guy #1 (segment 'T is for Torture Porn')), Мигель Анхель Муньос, Иван Гонсалес (The father), Йен Вирго (Fletcher (segment)), Alys Crocker (Actor (segment U)), Виктория Брум (Miriam (segment S))
  • Описание:
    Приготовьтесь к продолжению убийств по алфавиту! 26 новых режиссёров и ещё 26 смертей на экране заставят вас трепетать от ужаса и обагрят ваши лица кровью.


    Качество: HDRip
    Формат:AVI
    Видео кодек: XviD
    Аудио кодек:AC3
    Видео: XviD, 720x400 (16:9), 1664 kbps, 24 fps, 0,241 bpp
    Аудио №1: AC3 / 5.1 / 48 kHz / 384 kbps / RUS
    Аудио №2: AC3 / 5.1 / 48 kHz / 256 kbps / ENG

    Код:

    General
    Complete name                            : D:\Торенты\Az СПАМ
    Format                                   : AVI
    Format/Info                              : Audio Video Interleave
    File size                                : 2.06 GiB
    Duration                                 : 2h 2mn
    Overall bit rate                         : 2 411 Kbps
    Writing application                      : VirtualDubMod 1.5.10.2 (build 2540/release)
    Writing library                          : VirtualDubMod build 2540/release

    Video
    ID                                       : 0
    Format                                   : MPEG-4 Visual
    Format profile                           : Advanced Simple@L5
    Format settings, BVOP                    : 2
    Format settings, QPel                    : No
    Format settings, GMC                     : No warppoints
    Format settings, Matrix                  : Custom
    Codec ID                                 : XVID
    Codec ID/Hint                            : XviD
    Duration                                 : 2h 2mn
    Bit rate                                 : 1 665 Kbps
    Width                                    : 720 pixels
    Height                                   : 400 pixels
    Display aspect ratio                     : 16:9
    Frame rate                               : 24.000 fps
    Color space                              : YUV
    Chroma subsampling                       : 4:2:0
    Bit depth                                : 8 bits
    Scan type                                : Progressive
    Compression mode                         : Lossy
    Bits/(Pixel*Frame)                       : 0.241
    Stream size                              : 1.42 GiB (69%)
    Writing library                          : XviD 1.2.1 (UTC 2008-12-04)

    Audio #1
    ID                                       : 1
    Format                                   : AC-3
    Format/Info                              : Audio Coding 3
    Mode extension                           : CM (complete main)
    Codec ID                                 : 2000
    Duration                                 : 2h 2mn
    Bit rate mode                            : Constant
    Bit rate                                 : 384 Kbps
    Channel(s)                               : 6 channels
    Channel positions                        : Front: L C R, Side: L R, LFE
    Sampling rate                            : 48.0 KHz
    Bit depth                                : 16 bits
    Compression mode                         : Lossy
    Stream size                              : 336 MiB (16%)
    Alignment                                : Split accross interleaves

    Audio #2
    ID                                       : 2
    Format                                   : AC-3
    Format/Info                              : Audio Coding 3
    Mode extension                           : CM (complete main)
    Codec ID                                 : 2000
    Duration                                 : 2h 2mn
    Bit rate mode                            : Constant
    Bit rate                                 : 256 Kbps
    Channel(s)                               : 6 channels
    Channel positions                        : Front: L C R, Side: L R, LFE
    Sampling rate                            : 48.0 KHz
    Bit depth                                : 16 bits
    Compression mode                         : Lossy
    Stream size                              : 224 MiB (11%)
    Alignment                                : Split accross interleaves


    Скриншоты:

    Каталог Новинок (Фильмы-трейлеры, Игры, Сериалы, Мультфильмы)

    © Оформление by Ворон
    piratbit.pw



  • Скачать Азбука смерти 2 через торрент https://pic1.kartinco.top/images/61/ordi9.jpg Скачать фильм Азбука смерти 2 через торрент бесплантно в хорошем качестве Описание:Приготовьтесь к продолжению убийств по алфавиту! 26 новых режиссёров и ещё 26 смертей на экране заставят вас трепетать от ужаса и ... 9 10 9
    Торрент: Зарегистрирован [2015-01-20 10:15] · скачан: 190 раз
    Статус: T временная
    Размер: 2.06 GB
    Как cкачать? Как скачать Азбука смерти 2 через торрент | UTorrent

    % Раздел Тема Автор DL S | L
    T Фильмы [HD 720p, 1080p] (Хороший звук DUB, MVO) [ 5.77 GB ] Азбука смерти 2 / The ABCs of Death 2 [2014 BDRip 720p Любительский [den904 DeadSno] Ворон Скачать
    1 | 0
    Арт-хаус и авторское кино [ 2.19 GB ] Азбука смерти / The ABCs of Death [2012 ВDRip] 2.19 Гб diletant Скачать
    1 | 0

    28-11-2019 20:33  

    Отключить всю рекламу на сайте

    20-01-2015 11:37 Азбука смерти 2 Скачать торрент  

    бредовый фильмpiratbit.pw



    20-01-2015 11:44 Азбука смерти 2 Скачать торрент  

    третии скрин убедил меня не качать )piratbit.pw



    20-01-2015 13:28 Азбука смерти 2 Скачать торрент  

    dollart18 писал(а):

    третии скрин убедил меня не качать )

    убил )))piratbit.pw



    21-01-2015 08:34 Азбука смерти 2 Скачать торрент  

    третии скрин убедил меня не качать )
    Последую совету)))piratbit.pw



    21-01-2015 13:07 Азбука смерти 2 Скачать торрент  

    dollart18 писал(а):

    третии скрин убедил меня не качать )

    sarcasticpiratbit.pw



      Дорогой пользователь! Огромная просьба, поблагодарите релизера, оцените раздачу и оставьте свои комментарий, если Вы скачали Азбука смерти 2 через торрент бесплатно! Внесите свою лепту в развитие PiratBit!
      Комментировать посты могут только пользователи прошедшие не сложную регистрацию
      Показать сообщения:    

      Азбука смерти 2 через торрент
      Скачать бесплатно Азбука смерти 2
      Азбука смерти 2 скачать торрент
      Азбука смерти 2 смотреть онлайн
      Cкачать фильм Азбука смерти 2 бесплатно
      Азбука смерти 2 скачать торрент в хорошем качестве
      Азбука смерти 2 смотреть онлайн бесплатно в хорошем качестве


      Вы не можете начинать темы
      Вы не можете отвечать на сообщения
      Вы не можете редактировать свои сообщения
      Вы не можете удалять свои сообщения
      Вы не можете голосовать в опросах
      Вы не можете прикреплять файлы к сообщениям
      Вы можете скачивать файлы