1 сезон

1 сезон

iTunes

1

КиноПоиск HD

Кинопоиск HD

iTunes

13

1 сезон

RePack

30

Ultimate

ВАЖНО

ИГРА 18+

pack

RePack

MK11
pack

Легкие деньги

RePack

jed

RePack

fifa19

RePack

RDR2

RePack

NEED FOR SPEED™ PAYBACK

4 сезон

9 сезон

Бесстыжие 9 сезон

Все сериалы

все сериалы на PB.wtf

RePack

FAR CRY 5
  
Magnet ссылка

Мёртвые, проклятые и тьма / The Dead the Damned and the Darkness (Рене Перез ) [2014, ужасы, боевик, триллер, WEB-DL 720p, Авторский (одноголосый) (Ворон) piratbit.pw

Мёртвые, проклятые и тьма через торрент piratbit.pw

Размер: 2.27 GB | Добавлен: 6 лет 3 мес. назад | Торрент скачан:117 раз
Скачать  

19-01-2015 19:53 Мёртвые, проклятые и тьма Скачать торрент  


Мёртвые, проклятые и тьма / The Dead the Damned and the Darkness


Год выпуска:2014
Страна:США
Жанр:ужасы, боевик, триллер
Продолжительность: 01:30:13
Перевод:Авторский (одноголосый) (Ворон)
Режиссер:Рене Перез
В ролях:

Роберт Туитен (Lt. Colonel Sawyer), Ирен Леви (Stephanie), Джон Дж. Уэлш (Wilson), Ричард Тайсон (Sheriff), Рэйвен Лекси (Mother in the green house), Расселл Питти (Rapist), Кристофер Криса (Speaker of the house Gates), Дакота Аллен (Downtown Mutant Male #1), Дженнифер Оллфорд (Mrs. Sawyer), Джейд Армента (Girl in the greenhouse), Тейлор Артус (Downtown Mutant Female), Челси Бэйли (Mutant Corpse)
  • Описание:
    Зомби-апокалипсис превратил землю в пустыню. Последние выжившие скитаются по разграбленному и опустошенному миру, пытаясь найти еду и кров. Через все Соединенные Штаты гордо шагает воин-одиночка в супер совершенном бронированном костюме. Ему не страшны кровожадные мутанты. У него есть цель. Ему больше нечего терять. В одной руке у него двадцатикилограммовая кувалда, в другой - урна с прахом погибшей жены и армия пожирателей плоти не остановит его на пути к океану, где он должен развеять прах любимой. Зомби не остановят...Его остановят люди. Ведь он единственный выживший солдат на этой заранее проигранной войне. Люди остановят его, чтобы попросить о помощи...


    Качество: WEB-DL 720p
    Формат:MKV
    Видео кодек: AVC
    Аудио кодек:MP3
    Видео: AVC, 1280x720 (16:9), 3278 kbps, 23,976 fps, 0,148 bpp
    Аудио: MP3 / 2.0 / 48 kHz / 256 kbps /

    Код:

    General
    Unique ID                                : 181706754610654917318013656667517417881 (0x88B372AED4B838618FF949A1AF88F999)
    Complete name                            : D:\Торенты\The.Dead.the.Damned.and.the.Darkness.2014.720p.BRRip.x264.AC3-VORON.mkv
    Format                                   : Matroska
    Format version                           : Version 4 / Version 2
    File size                                : 2.27 GiB
    Duration                                 : 1h 30mn
    Overall bit rate                         : 3 606 Kbps
    Encoded date                             : UTC 2015-01-12 22:43:24
    Writing application                      : mkvmerge v7.5.0 ('Glass Culture') 32bit built on Jan  4 2015 16:37:25
    Writing library                          : libebml v1.3.1 + libmatroska v1.4.2

    Video
    ID                                       : 1
    Format                                   : AVC
    Format/Info                              : Advanced Video Codec
    Format profile                           : High@L4.1
    Format settings, CABAC                   : Yes
    Format settings, ReFrames                : 4 frames
    Codec ID                                 : V_MPEG4/ISO/AVC
    Duration                                 : 1h 30mn
    Bit rate                                 : 3 279 Kbps
    Nominal bit rate                         : 3 461 Kbps
    Width                                    : 1 280 pixels
    Height                                   : 720 pixels
    Display aspect ratio                     : 16:9
    Frame rate mode                          : Variable
    Frame rate                               : 23.976 fps
    Color space                              : YUV
    Chroma subsampling                       : 4:2:0
    Bit depth                                : 8 bits
    Scan type                                : Progressive
    Bits/(Pixel*Frame)                       : 0.148
    Stream size                              : 2.07 GiB (91%)
    Writing library                          : x264 core 130 r2273 b3065e6
    Encoding settings                        : cabac=1 / ref=1 / deblock=1:0:0 / analyse=0x3:0x113 / me=hex / subme=2 / psy=1 / psy_rd=1.00:0.00 / mixed_ref=0 / me_range=16 / chroma_me=1 / trellis=0 / 8x8dct=1 / cqm=0 / deadzone=21,11 / fast_pskip=1 / chroma_qp_offset=0 / threads=6 / lookahead_threads=2 / sliced_threads=0 / nr=0 / decimate=1 / interlaced=0 / bluray_compat=0 / constrained_intra=0 / bframes=3 / b_pyramid=2 / b_adapt=1 / b_bias=0 / direct=1 / weightb=1 / open_gop=0 / weightp=1 / keyint=240 / keyint_min=24 / scenecut=40 / intra_refresh=0 / rc_lookahead=10 / rc=abr / mbtree=1 / bitrate=3461 / ratetol=1.0 / qcomp=0.60 / qpmin=0 / qpmax=69 / qpstep=4 / vbv_maxrate=62500 / vbv_bufsize=78125 / nal_hrd=none / ip_ratio=1.40 / aq=1:1.00
    Language                                 : English
    Default                                  : Yes
    Forced                                   : No
    Color primaries                          : BT.709-5, BT.1361, IEC 61966-2-4, SMPTE RP177
    Transfer characteristics                 : BT.709-5, BT.1361
    Matrix coefficients                      : BT.709-5, BT.1361, IEC 61966-2-4 709, SMPTE RP177

    Audio
    ID                                       : 2
    Format                                   : MPEG Audio
    Format version                           : Version 1
    Format profile                           : Layer 3
    Mode                                     : Joint stereo
    Codec ID                                 : A_MPEG/L3
    Codec ID/Hint                            : MP3
    Duration                                 : 1h 30mn
    Bit rate mode                            : Constant
    Bit rate                                 : 256 Kbps
    Channel(s)                               : 2 channels
    Sampling rate                            : 48.0 KHz
    Compression mode                         : Lossy
    Stream size                              : 165 MiB (7%)
    Default                                  : Yes
    Forced                                   : No


    Скриншоты:

    Каталог Новинок (Фильмы-трейлеры, Игры, Сериалы, Мультфильмы)

    © Оформление by Ворон
    piratbit.pw



  • Скачать Мёртвые, проклятые и тьма через торрент https://pic.kartinco.top/images/6/ordi9.jpg Скачать фильм Мёртвые, проклятые и тьма через торрент бесплантно в хорошем качестве Описание:Зомби-апокалипсис превратил землю в пустыню. Последние выжившие скитаются по разграбленному и опустошенному миру, пытаясь найти ... 8.1 10 8
    Торрент: Зарегистрирован [2015-01-19 19:53] · скачан: 117 раз
    Статус: T временная
    Размер: 2.27 GB
    Как cкачать? Как скачать Мёртвые, проклятые и тьма через торрент | UTorrent

    % Раздел Тема Автор DL S | L
    Фильмы с авторской озвучкой [ 1.38 GB ] Мёртвые проклятые и тьма / The Dead the Damned and the Darkness [2014 HDRip Авторский - Ворон Ворон Скачать
    1 | 0

    28-11-2019 20:33  

    Отключить всю рекламу на сайте

    20-01-2015 03:13 Мёртвые, проклятые и тьма Скачать торрент  

    описание это что то :shoot2: :hunter: :jest3:piratbit.pw



      Дорогой пользователь! Огромная просьба, поблагодарите релизера, оцените раздачу и оставьте свои комментарий, если Вы скачали Мёртвые, проклятые и тьма через торрент бесплатно! Внесите свою лепту в развитие PiratBit!
      Комментировать посты могут только пользователи прошедшие не сложную регистрацию
      Показать сообщения:    

      Мёртвые, проклятые и тьма через торрент
      Скачать бесплатно Мёртвые, проклятые и тьма
      Мёртвые, проклятые и тьма скачать торрент
      Мёртвые, проклятые и тьма смотреть онлайн
      Cкачать фильм Мёртвые, проклятые и тьма бесплатно
      Мёртвые, проклятые и тьма скачать торрент в хорошем качестве
      Мёртвые, проклятые и тьма смотреть онлайн бесплатно в хорошем качестве


      Вы не можете начинать темы
      Вы не можете отвечать на сообщения
      Вы не можете редактировать свои сообщения
      Вы не можете удалять свои сообщения
      Вы не можете голосовать в опросах
      Вы не можете прикреплять файлы к сообщениям
      Вы можете скачивать файлы