1 сезон

1 сезон

iTunes

1

КиноПоиск HD

Кинопоиск HD

iTunes

13

1 сезон

RePack

30

Новинка

ВАЖНО

ИГРА 18+

pack

RePack

MK11
pack

Легкие деньги

RePack

jed

RePack

fifa19

RePack

RDR2

RePack

NEED FOR SPEED™ PAYBACK

4 сезон

9 сезон

Бесстыжие 9 сезон

Все сериалы

все сериалы на PB.wtf

RePack

FAR CRY 5
  
Magnet ссылка

Мёртвые, проклятые и тьма / The Dead the Damned and the Darkness (Рене Перез ) [2014, ужасы, боевик, триллер, HDRip, Авторский (одноголосый)- Ворон piratbit.pw

Мёртвые, проклятые и тьма через торрент piratbit.pw

Размер: 1.38 GB | Добавлен: 6 лет 3 мес. назад | Торрент скачан:119 раз
Скачать  

19-01-2015 19:47 Мёртвые, проклятые и тьма Скачать торрент  


Мёртвые, проклятые и тьма / The Dead the Damned and the Darkness


Год выпуска:2014
Страна:США
Жанр:ужасы, боевик, триллер
Продолжительность: 01:30:13
Перевод:Авторский (одноголосый) - Ворон
Режиссер:Рене Перез
В ролях:

Роберт Туитен (Lt. Colonel Sawyer), Ирен Леви (Stephanie), Джон Дж. Уэлш (Wilson), Ричард Тайсон (Sheriff), Рэйвен Лекси (Mother in the green house), Расселл Питти (Rapist), Кристофер Криса (Speaker of the house Gates), Дакота Аллен (Downtown Mutant Male #1), Дженнифер Оллфорд (Mrs. Sawyer), Джейд Армента (Girl in the greenhouse), Тейлор Артус (Downtown Mutant Female), Челси Бэйли (Mutant Corpse)
  • Описание:
    Зомби-апокалипсис превратил землю в пустыню. Последние выжившие скитаются по разграбленному и опустошенному миру, пытаясь найти еду и кров. Через все Соединенные Штаты гордо шагает воин-одиночка в супер совершенном бронированном костюме. Ему не страшны кровожадные мутанты. У него есть цель. Ему больше нечего терять. В одной руке у него двадцатикилограммовая кувалда, в другой - урна с прахом погибшей жены и армия пожирателей плоти не остановит его на пути к океану, где он должен развеять прах любимой. Зомби не остановят...Его остановят люди. Ведь он единственный выживший солдат на этой заранее проигранной войне. Люди остановят его, чтобы попросить о помощи...


    Качество: HDRip
    Формат:AVI
    Видео кодек: XviD
    Аудио кодек:AC3
    Видео: XviD, 720x400 (16:9), 1995 kbps, 23,976 fps
    Аудио: AC3 / 2.0 / 48 kHz / 192 kbps /

    Код:

    General
    Complete name                            : D:\Торенты\The Dead the Damned and the Darkness (2014) HRRip.avi
    Format                                   : AVI
    Format/Info                              : Audio Video Interleave
    Format profile                           : OpenDML
    Format settings                          : rec
    File size                                : 1.38 GiB
    Duration                                 : 1h 30mn
    Overall bit rate                         : 2 192 Kbps
    Writing application                      : AVI-Mux GUI 1.17.8.3, Feb 16 201019:42:50

    Video
    ID                                       : 0
    Format                                   : MPEG-4 Visual
    Codec ID                                 : XVID
    Codec ID/Hint                            : XviD
    Duration                                 : 1h 30mn
    Source duration                          : 12s 596ms
    Bit rate                                 :  1995 bps
    Width                                    : 720 pixels
    Height                                   : 400 pixels
    Display aspect ratio                     : 16:9
    Frame rate                               : 23.976 fps
    Color space                              : YUV
    Chroma subsampling                       : 4:2:0
    Compression mode                         : Lossy
    Bits/(Pixel*Frame)                       : 0.000
    Stream size                              : 752 KiB (0%)

    Audio
    ID                                       : 1
    Format                                   : AC-3
    Format/Info                              : Audio Coding 3
    Codec ID                                 : 2000
    Duration                                 : 1h 30mn
    Source duration                          : 12s 800ms
    Bit rate mode                            : Constant
    Bit rate                                 : 192 Kbps
    Channel(s)                               : 2 channels
    Sampling rate                            : 48.0 KHz
    Compression mode                         : Lossy
    Stream size                              : 300 KiB (0%)
    Alignment                                : Aligned on interleaves
    Interleave, duration                     : 63 ms (1.51 video frames)
    Interleave, preload duration             : 192 ms
    Title                                    : Rus_123


    Скриншоты:

    Каталог Новинок (Фильмы-трейлеры, Игры, Сериалы, Мультфильмы)

    © Оформление by Ворон
    piratbit.pw



  • Скачать Мёртвые, проклятые и тьма через торрент https://pic.kartinco.top/images/6/ordi9.jpg Скачать фильм Мёртвые, проклятые и тьма через торрент бесплантно в хорошем качестве Описание:Зомби-апокалипсис превратил землю в пустыню. Последние выжившие скитаются по разграбленному и опустошенному миру, пытаясь найти ... 9.8 10 6
    Торрент: Зарегистрирован [2015-01-19 19:47] · скачан: 119 раз
    Статус: √ проверено
    Размер: 1.38 GB
    Как cкачать? Как скачать Мёртвые, проклятые и тьма через торрент | UTorrent

    % Раздел Тема Автор DL S | L
    T Фильмы с авторской озвучкой [ 2.27 GB ] Мёртвые проклятые и тьма / The Dead the Damned and the Darkness [2014 WEB-DL 720p Авторский Ворон Скачать
    1 | 0

    28-11-2019 20:33  

    Отключить всю рекламу на сайте

      Дорогой пользователь! Огромная просьба, поблагодарите релизера, оцените раздачу и оставьте свои комментарий, если Вы скачали Мёртвые, проклятые и тьма через торрент бесплатно! Внесите свою лепту в развитие PiratBit!
      Комментировать посты могут только пользователи прошедшие не сложную регистрацию
      Показать сообщения:    

      Мёртвые, проклятые и тьма через торрент
      Скачать бесплатно Мёртвые, проклятые и тьма
      Мёртвые, проклятые и тьма скачать торрент
      Мёртвые, проклятые и тьма смотреть онлайн
      Cкачать фильм Мёртвые, проклятые и тьма бесплатно
      Мёртвые, проклятые и тьма скачать торрент в хорошем качестве
      Мёртвые, проклятые и тьма смотреть онлайн бесплатно в хорошем качестве


      Вы не можете начинать темы
      Вы не можете отвечать на сообщения
      Вы не можете редактировать свои сообщения
      Вы не можете удалять свои сообщения
      Вы не можете голосовать в опросах
      Вы не можете прикреплять файлы к сообщениям
      Вы можете скачивать файлы