1 сезон

3 сезон

iTunes

1

iTunes

DUB Netflix

iTunes

13

1 сезон

RePack

30

Deluxe

pack

Легкие деньги

ВАЖНО

ИГРА 18+

pack

RePack

MK11

RePack

jed

RePack

fifa19

RePack

RDR2

RePack

NEED FOR SPEED™ PAYBACK

4 сезон

9 сезон

Бесстыжие 9 сезон

Все сериалы

все сериалы на PB.wtf

RePack

FAR CRY 5

Anonymous, доброе утро, мы не успеваем до 1 числа собрать деньги на оплату серверов, помогите нам пожалуйста в это трудное время. В качестве благодарности мы отключим Вам всю рекламу на сайте (укажите свой ник в строку Ваше имя)!

×
  
Magnet ссылка

Срам-ТВ / Swearnet: The Movie (Уоррен П. Сонода / Warren P. Sonoda) [2014, Канада, комедия, WEB-DLRip, Любительский (одноголосый) [kyberpunk] piratbit.pw

Срам-ТВ через торрент piratbit.pw

Размер: 1.48 GB | Добавлен: 6 лет 4 мес. назад | Торрент скачан:139 раз
Скачать  

19-01-2015 02:10 Срам-ТВ Скачать торрент  

Срам-ТВ / Swearnet: The Movie


  • Год выпуска: 2014
  • Страна: Канада
  • Жанр: комедия
  • Продолжительность: 01:51:52
  • Перевод: Любительский (одноголосый) [Михаил Яроцкий aka kyberpunk] - по переводу [М.Яроцкий]

  • Режиссер: Уоррен П. Сонода / Warren P. Sonoda
  • В ролях:

    Робб Уэллс (Robb Wells), Джон Пол Тремблэ (John Paul Tremblay), Майк Смит (Mike Smith), Патрик Роач (Pat / Swearman), Том Грин (Tom Green), Скотт «Кэррот Топ» Томпсон (Carrot Top), Мишель Морган (Jamie), Сара Юргенс (Julie), Шеннон Леруа (Rachel), Дэна Вудс (Jogi), Ховард Джером (Trigger (Carl)), Leigh MacInnis (Leigh)

  • Описание:
    Устав от навязываемой им цензуры, Робб Уэллс, Майк Смит и Джон Пол Трембле решили запустить свой собственный канал в интернете, где они смогут творить все, что им заблагорассудится.
  • Рейтинг:



  • Качество: WEB-DLRip
  • Формат: :AVI
  • Видео кодек: XviD
  • Аудио кодек: AC3
  • Видео: 720x400 (16:9), 1497 kbps, 23,976 fps, 0,217 bpp
  • Аудио: 5.1 / 48 kHz / 384 kbps / 16 bit
  • Релиз от: GEKADOL

    Код:

    General
    Complete name                            : I:\Sram.Tv.2014.P1.WEB-DLRip.avi
    Format                                   : AVI
    Format/Info                              : Audio Video Interleave
    File size                                : 1.48 GiB
    Duration                                 : 1h 51mn
    Overall bit rate                         : 1 891 Kbps
    Writing application                      : VirtualDubMod 1.5.10.2 (build 2540/release)
    Writing library                          : VirtualDubMod build 2540/release

    Video
    ID                                       : 0
    Format                                   : MPEG-4 Visual
    Format profile                           : Advanced Simple@L5
    Format settings, BVOP                    : 2
    Format settings, QPel                    : No
    Format settings, GMC                     : No warppoints
    Format settings, Matrix                  : Default (H.263)
    Muxing mode                              : Packed bitstream
    Codec ID                                 : XVID
    Codec ID/Hint                            : XviD
    Duration                                 : 1h 51mn
    Bit rate                                 : 1 498 Kbps
    Width                                    : 720 pixels
    Height                                   : 400 pixels
    Display aspect ratio                     : 16:9
    Frame rate                               : 23.976 fps
    Color space                              : YUV
    Chroma subsampling                       : 4:2:0
    Bit depth                                : 8 bits
    Scan type                                : Progressive
    Compression mode                         : Lossy
    Bits/(Pixel*Frame)                       : 0.217
    Stream size                              : 1.17 GiB (79%)
    Writing library                          : XviD 64

    Audio
    ID                                       : 1
    Format                                   : AC-3
    Format/Info                              : Audio Coding 3
    Mode extension                           : CM (complete main)
    Codec ID                                 : 2000
    Duration                                 : 1h 51mn
    Bit rate mode                            : Constant
    Bit rate                                 : 384 Kbps
    Channel(s)                               : 6 channels
    Channel positions                        : Front: L C R, Side: L R, LFE
    Sampling rate                            : 48.0 KHz
    Bit depth                                : 16 bits
    Compression mode                         : Lossy
    Stream size                              : 307 MiB (20%)
    Alignment                                : Split accross interleaves
    Interleave, duration                     : 42 ms (1.00 video frame)
    Interleave, preload duration             : 500 ms


    Скриншоты:



    piratbit.pw



  • Скачать Срам-ТВ через торрент http://i67.fastpic.ru/big/2015/0119/a6/40d7272953df5f06a1142d97e96a13a6.jpg Скачать фильм Срам-ТВ через торрент бесплантно в хорошем качестве Описание: Устав от навязываемой им цензуры, Робб Уэллс, Майк Смит и Джон Пол Трембле решили запустить свой собственный канал в интернете, ... 6.2 10 6
    Торрент: Зарегистрирован [2015-01-19 02:10] · скачан: 139 раз
    Статус: T временная
    Размер: 1.48 GB
    Как cкачать? Как скачать Срам-ТВ через торрент | UTorrent

    % Раздел Тема Автор DL S | L
    T Фильмы (WEB-DL 720p, 1080p) [ 3.69 GB ] Срам-ТВ / Swearnet: The Movie [2014 WEB-DL 720p Любительский [Михаил Яроцкий aka kyberpunk] Ворон Скачать
    1 | 0

    28-11-2019 20:33  

    Отключить всю рекламу на сайте

    19-01-2015 05:18 Срам-ТВ Скачать торрент  

    Чёт на бред тянет =( Мата перебор даже не смешно ниразу =(piratbit.pw



    19-01-2015 17:58 Срам-ТВ Скачать торрент  

    Оно не то что тянет, а это и есть бред.piratbit.pw



    19-01-2015 21:00 Срам-ТВ Скачать торрент  

    Шлак полнейший ???piratbit.pw



      Дорогой пользователь! Огромная просьба, поблагодарите релизера, оцените раздачу и оставьте свои комментарий, если Вы скачали Срам-ТВ через торрент бесплатно! Внесите свою лепту в развитие PiratBit!
      Комментировать посты могут только пользователи прошедшие не сложную регистрацию
      Показать сообщения:    

      Срам-ТВ через торрент
      Скачать бесплатно Срам-ТВ
      Срам-ТВ скачать торрент
      Срам-ТВ смотреть онлайн
      Cкачать фильм Срам-ТВ бесплатно
      Срам-ТВ скачать торрент в хорошем качестве
      Срам-ТВ смотреть онлайн бесплатно в хорошем качестве


      Вы не можете начинать темы
      Вы не можете отвечать на сообщения
      Вы не можете редактировать свои сообщения
      Вы не можете удалять свои сообщения
      Вы не можете голосовать в опросах
      Вы не можете прикреплять файлы к сообщениям
      Вы можете скачивать файлы