1 сезон

1 сезон

iTunes

1

КиноПоиск HD

Кинопоиск HD

iTunes

13

1 сезон

RePack

30

Ultimate

ВАЖНО

ИГРА 18+

pack

RePack

MK11
pack

Легкие деньги

RePack

jed

RePack

fifa19

RePack

RDR2

RePack

NEED FOR SPEED™ PAYBACK

4 сезон

9 сезон

Бесстыжие 9 сезон

Все сериалы

все сериалы на PB.wtf

RePack

FAR CRY 5
  
Magnet ссылка

Занесло / Redirected (Эмилис Веливис ) [2014, боевик, триллер, комедия, WEB-DLRip, Авторский (одноголосый) (Матвеев (Doctor Jocker) piratbit.pw

Занесло через торрент piratbit.pw

Размер: 1.46 GB | Добавлен: 6 лет 3 мес. назад | Торрент скачан:269 раз
Скачать  

18-01-2015 05:04 Занесло Скачать торрент  


Занесло / Redirected


Год выпуска:2014
Страна:Литва, Великобритания
Жанр:боевик, триллер, комедия, криминал
Продолжительность: 01:39:03
Перевод:Авторский (одноголосый) (Матвеев (Doctor Jocker)
Режиссер:Эмилис Веливис
В ролях:

Винни Джонс (Golden Pole), Скот Уильямс (Michael), Гил Дарнелл (Johnny), Оливер Джексон (Tim), Энтони Страхан (Ben), Андрюс Жюраускас (Staska), Витаутас Шапранаускас (Algis), Артур Смольянинов (Doncius), Вита Сяусюнайте (Saule), Моника (Simona), Дэниэл-Джон Уильямс (Golden Pole's Hitman 'Barman'), Дэниэл Неме (Turk)
  • Описание:
    Картина повествует о необычайных приключениях в Литве четырёх англичан - Майкла, Джонни, Бена и Тима. После удачного налёта в Лондоне на нелегальное казино, «славная четвёрка» садится в самолет, летящий в Малайзию. Кажется, все идёт по плану. Но... Никто не мог предусмотреть проделок вулкана Эйяфьядлайёкюдля, извержение которого вынудило самолет с англичанами сесть в Вильнюсе. Мало того, помимо местных разборок и приключений на все части тела, друзьям приходится спасаться от жаждущего мести владельца ограбленного казино.


    Качество: WEB-DLRip
    Формат:AVI
    Видео кодек: XviD
    Аудио кодек:AC3
    Видео: XviD, 720x304 (2.35:1), 1711 kbps, 23,976 fps, 0,310 bpp
    Аудио: AC3 / 5.1 / 48 kHz / 384 kbps / 16 bit

    Код:

    General
    Complete name                            : D:\Торенты\Smena.Kursa.2014.A.WEB-DLRip.avi
    Format                                   : AVI
    Format/Info                              : Audio Video Interleave
    File size                                : 1.46 GiB
    Duration                                 : 1h 39mn
    Overall bit rate                         : 2 105 Kbps
    Writing application                      : VirtualDubMod 1.5.10.2 (build 2540/release)
    Writing library                          : VirtualDubMod build 2540/release

    Video
    ID                                       : 0
    Format                                   : MPEG-4 Visual
    Format profile                           : Advanced Simple@L5
    Format settings, BVOP                    : 1
    Format settings, QPel                    : No
    Format settings, GMC                     : No warppoints
    Format settings, Matrix                  : Custom
    Codec ID                                 : XVID
    Codec ID/Hint                            : XviD
    Duration                                 : 1h 39mn
    Bit rate                                 : 1 629 Kbps
    Width                                    : 720 pixels
    Height                                   : 304 pixels
    Display aspect ratio                     : 2.35:1
    Frame rate                               : 23.976 fps
    Color space                              : YUV
    Chroma subsampling                       : 4:2:0
    Bit depth                                : 8 bits
    Scan type                                : Progressive
    Compression mode                         : Lossy
    Bits/(Pixel*Frame)                       : 0.310
    Stream size                              : 1.13 GiB (77%)
    Writing library                          : XviD 73

    Audio
    ID                                       : 1
    Format                                   : AC-3
    Format/Info                              : Audio Coding 3
    Mode extension                           : CM (complete main)
    Codec ID                                 : 2000
    Duration                                 : 1h 39mn
    Bit rate mode                            : Constant
    Bit rate                                 : 384 Kbps
    Channel(s)                               : 6 channels
    Channel positions                        : Front: L C R, Side: L R, LFE
    Sampling rate                            : 48.0 KHz
    Bit depth                                : 16 bits
    Compression mode                         : Lossy
    Stream size                              : 272 MiB (18%)
    Alignment                                : Split accross interleaves


    Скриншоты:

    Каталог Новинок (Фильмы-трейлеры, Игры, Сериалы, Мультфильмы)

    © Оформление by Ворон
    piratbit.pw



  • Скачать Занесло через торрент https://pic.kartinco.top/images/6/ordi9.jpg Скачать фильм Занесло через торрент бесплантно в хорошем качестве Описание:Картина повествует о необычайных приключениях в Литве четырёх англичан - Майкла, Джонни, Бена и Тима. После удачного налёта в ... 8.8 10 8
    Торрент: Зарегистрирован [2015-01-18 05:04] · скачан: 269 раз
    Статус: √ проверено
    Размер: 1.46 GB
    Как cкачать? Как скачать Занесло через торрент | UTorrent

    % Раздел Тема Автор DL S | L
    T Фильмы 2014 [DVDrip, WEB-DLRip, HDrip] [ 1.37 GB ] Занесло / Redirected [2014 WEB-DLRip Любительский многоголосый [Студия "Paradox"] кэп Скачать
    2 | 0
    Фильмы с украинским озвучиванием [ 1.45 GB ] Занесло / Redirected [2014 BDRip] killermax2013 Скачать
    1 | 0
    Фильмы [HD 720p, 1080p] (Хороший звук DUB, MVO) [ 6.96 GB ] Занесло / Redirected [2014 BDRip 720p] 2xAVO MVO _denis_100 Скачать
    1 | 0
    Фильмы (Blu-ray, BD-Remux, HDDVD) [ 25.63 GB ] Занесло / Redirected [2014 Blu-ray Remux MVO+AVO] Ворон Скачать
    1 | 0
    Фильмы [HD 720p, 1080p] (Хороший звук DUB, MVO) [ 9.22 GB ] Занесло / Redirected [2014 BDRip 720p MVO+AVO] Ворон Скачать
    1 | 0
    T Фильмы с авторской озвучкой [ 3 GB ] Занесло / Redirected [2014 WEBRip 720p Авторский Ворон Скачать
    1 | 0
    T Фильмы 2014 (Звук TS, Cam, VO, DVO) [ 947 MB ] Занесло / Redirected [2014 WebRip Любительский одноголосый][RAIM] Ворон Скачать
    1 | 0

    28-11-2019 20:33  

    Отключить всю рекламу на сайте

      Дорогой пользователь! Огромная просьба, поблагодарите релизера, оцените раздачу и оставьте свои комментарий, если Вы скачали Занесло через торрент бесплатно! Внесите свою лепту в развитие PiratBit!
      Комментировать посты могут только пользователи прошедшие не сложную регистрацию
      Показать сообщения:    

      Занесло через торрент
      Скачать бесплатно Занесло
      Занесло скачать торрент
      Занесло смотреть онлайн
      Cкачать фильм Занесло бесплатно
      Занесло скачать торрент в хорошем качестве
      Занесло смотреть онлайн бесплатно в хорошем качестве


      Вы не можете начинать темы
      Вы не можете отвечать на сообщения
      Вы не можете редактировать свои сообщения
      Вы не можете удалять свои сообщения
      Вы не можете голосовать в опросах
      Вы не можете прикреплять файлы к сообщениям
      Вы можете скачивать файлы