1 сезон

3 сезон

iTunes

1

iTunes

DUB Netflix

iTunes

13

1 сезон

RePack

30

Deluxe

pack

Легкие деньги

ВАЖНО

ИГРА 18+

pack

RePack

MK11

RePack

jed

RePack

fifa19

RePack

RDR2

RePack

NEED FOR SPEED™ PAYBACK

4 сезон

9 сезон

Бесстыжие 9 сезон

Все сериалы

все сериалы на PB.wtf

RePack

FAR CRY 5

Anonymous, доброе утро, мы не успеваем до 1 числа собрать деньги на оплату серверов, помогите нам пожалуйста в это трудное время. В качестве благодарности мы отключим Вам всю рекламу на сайте (укажите свой ник в строку Ваше имя)!

×
  
Magnet ссылка

Призрак дома Редклифф / Алтарь / The haunting of Radcliffe house / Altar (Ник Уиллинг) [2014 г. Великобритания, Ужасы, детектив, WEB-DLRip, Любительский двухголосый [МЕГАПЫХАРЬ и Элис] piratbit.pw

Призрак дома Редклифф через торрент piratbit.pw

Размер: 743 MB | Добавлен: 6 лет 4 мес. назад | Торрент скачан:288 раз
Скачать  

17-01-2015 22:37 Призрак дома Редклифф Скачать торрент  

Призрак дома Редклифф / Алтарь / The haunting of Radcliffe house / Altar Год выпуска: 2014
Выпущено:: Великобритания, Great Point Media, Pygmalion Productions
Жанр: Ужасы, детектив
Длительность: 01:28:25
Перевод: Любительский двухголосый [МЕГАПЫХАРЬ и Элис]
Субтитры: Отсутствуют
Режиссер:Ник Уиллинг

В ролях:
Ребекка Калдер, Стефен Чэнс, Антония Кларк, Ричард Диллэйн, Джонатан Джейнс, Мэттью Модайн, Стив Орам
Описание:
В дом, купленный американским банкиром, приезжает дизайнер со всей своей семьёй, с заданием привести его в исходное состояние. Но им было не известно, что дом был заброшен не просто так...
Рейтинг:

Качество: WEB-DLRip
Формат: AVI
Видео кодек: XviD
Аудио кодек:Русский-AC3
Видео: 720x384, 973 kbps, 25.000 fps, 0.141
Аудио#1: Русский / 2 ch / 48 kHz / 192 kbps / 16 bit








General
Complete name : C:\Documents and Settings\Admin.MICROSOF-C69A97\Рабочий стол\Altar.2014.WEBRip.XviD.MP3-RARBG\Altar.2014.avi
Format : AVI
Format/Info : Audio Video Interleave
File size : 743 MiB
Duration : 1h 28mn
Overall bit rate : 1 175 Kbps
Writing application : VirtualDubMod 1.5.10.2 (build 2540/release)
Writing library : VirtualDubMod build 2540/release
Video
ID : 0
Format : xvid
Codec ID : xvid
Duration : 1h 28mn
Bit rate : 973 Kbps
Width : 720 pixels
Height : 384 pixels
Display aspect ratio : 1.85:1
Frame rate : 25.000 fps
Bits/(Pixel*Frame) : 0.141
Stream size : 616 MiB (83%)
Audio
ID : 1
Format : AC-3
Format/Info : Audio Coding 3
Mode extension : CM (complete main)
Format settings, Endianness : Big
Codec ID : 2000
Duration : 1h 28mn
Bit rate mode : Constant
Bit rate : 192 Kbps
Channel(s) : 2 channels
Channel positions : Front: L R
Sampling rate : 48.0 KHz
Bit depth : 16 bits
Compression mode : Lossy
Stream size : 121 MiB (16%)
Alignment : Split accross interleaves
Interleave, duration : 40 ms (1.00 video frame)
Interleave, preload duration : 500 ms

Приятного просмотра! Не забывайте говорить спасибо!!!
piratbit.pw



Скачать Призрак дома Редклифф через торрент http://s04.radikal.ru/i177/1501/0c/8c068a741f94.jpg Скачать фильм Призрак дома Редклифф через торрент бесплантно в хорошем качестве Описание: В дом, купленный американским банкиром, приезжает дизайнер со всей своей семьёй, с заданием привести его в исходное состояние. Но ... 9.3 10 7
Торрент: Зарегистрирован [2015-01-17 22:37] · скачан: 288 раз
Статус: T временная
Размер: 743 MB
Как cкачать? Как скачать Призрак дома Редклифф через торрент | UTorrent

28-11-2019 20:33  

Отключить всю рекламу на сайте

18-01-2015 01:17 Призрак дома Редклифф Скачать торрент  

рейтинг неплохой-для этого жанра-спасибо-беремpiratbit.pw



18-01-2015 01:35 Призрак дома Редклифф Скачать торрент  

Рейтинг указан неправильныйpiratbit.pw



18-01-2015 06:31 Призрак дома Редклифф Скачать торрент  

Асалум круто:)piratbit.pw



18-01-2015 22:20 Призрак дома Редклифф Скачать торрент  

Рейтинг не тот

IMDb: 4.70 (299)
А на кинопоиске всего 11 человек оценило sarcastic

Автор мир-дверь-мяч!piratbit.pw



    Дорогой пользователь! Огромная просьба, поблагодарите релизера, оцените раздачу и оставьте свои комментарий, если Вы скачали Призрак дома Редклифф через торрент бесплатно! Внесите свою лепту в развитие PiratBit!
    Комментировать посты могут только пользователи прошедшие не сложную регистрацию
    Показать сообщения:    

    Призрак дома Редклифф через торрент
    Скачать бесплатно Призрак дома Редклифф
    Призрак дома Редклифф скачать торрент
    Призрак дома Редклифф смотреть онлайн
    Cкачать фильм Призрак дома Редклифф бесплатно
    Призрак дома Редклифф скачать торрент в хорошем качестве
    Призрак дома Редклифф смотреть онлайн бесплатно в хорошем качестве


    Вы не можете начинать темы
    Вы не можете отвечать на сообщения
    Вы не можете редактировать свои сообщения
    Вы не можете удалять свои сообщения
    Вы не можете голосовать в опросах
    Вы не можете прикреплять файлы к сообщениям
    Вы можете скачивать файлы