Ссылка на приватное зеркало нашего сайта всего за 1$. Внимание количество ограничено!!!

2 сезон

iTunes

iTunes

1

iTunes

iTunes

iTunes

WEBRip

iTunes

30
pack

Новость дня

ВАЖНО

!!Акция!!

Alien_RageХит недели

RePack

Horizon Zero Dawn

ИГРА 18+

pack

RePack

jed

!!Акция!!

Alien_Rage

RePack

fifa19

RePack

Assassins Creed: Odyssey

RePack

NEED FOR SPEED™ PAYBACK

4 сезон

9 сезон

Бесстыжие 9 сезон

Все сериалы

все сериалы на PB.wtf

RePack

FAR CRY 5
  

Цирк «Бабочка» / The Butterfly Circus (Джошуа Вайгел) [2009 г., короткометражка, драма, WEB-DLRip] piratbit.pw

Цирк «Бабочка» через торрент piratbit.pw

Размер: 468 MB | Добавлен: 5 лет 8 мес. назад | Торрент скачан:80 раз
Скачать  

17-01-2015 07:47 Цирк «Бабочка» Скачать торрент  

Цирк «Бабочка» / The Butterfly Circus
Год выпуска: 2009
Страна: США
Жанр: короткометражка, драма
Продолжительность: 23 мин.
Перевод:
Многоголосый закадровый [Затейня господина Крословски]
Одноголосый закадровый [Iggy Peters]
Одноголосый закадровый [Studio Freeze]
Одноголосый закадровый [denisblek]
Субтитры: Есть

Режиссер: Джошуа Вайгел
Продюссер: Анджела Альварез, Джошуа Вайгел, Ребека Вейгель
Сценарий: Джошуа Вайгел, Ребека Вейгель

Премьера в мире: 31 августа 2009

IMDB 8.10 (1883)


В ролях: Эдуардо Верастеги, Ник Вуйчич, Даг Джонс, Мэтт Оллмен, Коннор Розен, Лекси Перл, Боб Йоркис, Марк Аттеберри, Кирк Бовилл, Кристиан Пайкс

Описание: В разгар Великой Депрессии, шоумен и владелец собственного небольшого цирка, гастролирует со своей труппой по разрушенной американской провинции, радуя и поднимая настроение простых людей в это не простое время. Во время своего путешествия, он посещает ярмарочный балаган, где обнаруживает человека без конечностей, которого там эксплуатируют в качестве живого экспоната шоу-уродов.В результате этот человек становится частью странствующей труппы цирковых артистов. Позднее, с помощью своих новых друзей, он обретает веру в себя, и делает то, о чем раньше не смел даже мечтать...

Качество: WEB-DLRip
Формат: AVI
Видео кодек: XviD
Аудио кодек: MP3
Видео: 720x288, (2.50:1), 23.976 fps, XviD build 64 ~2236 kbps avg, 0.45 bit/pixel
Аудио#1: 44,1 kHz, 2 ch, ~128 kbps avg (MVO) - [Затейня господина Крословски]
Аудио#2: 44,1 kHz, 2 ch, ~128 kbps avg (VO) - [Iggy Peters]
Аудио#3: 44,1 kHz, 2 ch, ~128 kbps avg (VO) - [Studio Freeze] - отдельно
Аудио#4: 44,1 kHz, 2 ch, ~128 kbps avg (VO) - [denisblek] - отдельно
Аудио#5: 44,1 kHz, 2 ch, ~128 kbps avg (ENG)
субтитры:русские "baks & Coacher" - отдельно
Общее
Полное имя : C:\Цирк «Бабочка»\The Butterfly Circus.2009.HDRip\The Butterfly Circus.2009.HDRip.avi
Формат : AVI
Формат/Информация : Audio Video Interleave
Размер файла : 427 Мбайт
Продолжительность : 22 м.
Общий поток : 2641 Кбит/сек
Название фильма : Butterfly
Программа кодирования : VirtualDubMod 1.5.10.3 (build 2550/release)
Библиотека кодирования : VirtualDubMod build 2550/release
Видео
Идентификатор : 0
Формат : MPEG-4 Visual
Профиль формата : Advanced Simple@L5
Параметр BVOP формата : 2
Параметр QPel формата : Нет
Параметр GMC формата : Без точки перехода
Параметр матрицы формата : Выборочная
Идентификатор кодека : XVID
Идентификатор кодека/Подсказка : XviD
Продолжительность : 22 м.
Битрейт : 2238 Кбит/сек
Ширина : 720 пикселей
Высота : 288 пикселей
Соотношение сторон : 2,500
Частота кадров : 23,976 кадра/сек
Цветовое пространство : YUV
Субдискретизация насыщенности : 4:2:0
Битовая глубина : 8 бит
Тип развёртки : Прогрессивная
Метод сжатия : С потерями
Бит/(Пиксели*Кадры) : 0.450
Размер потока : 362 Мбайт (85%)
Библиотека кодирования : XviD 64
Аудио #1
Идентификатор : 1
Формат : MPEG Audio
Версия формата : Version 1
Профиль формата : Layer 3
Режим : Joint stereo
Расширение режима : MS Stereo
Идентификатор кодека : 55
Идентификатор кодека/Подсказка : MP3
Продолжительность : 22 м.
Вид битрейта : Постоянный
Битрейт : 128 Кбит/сек
Каналы : 2 канала
Частота : 44,1 КГц
Метод сжатия : С потерями
Размер потока : 20,7 Мбайт (5%)
Выравнивание : Разделение по промежуткам
Продолжительность промежутка : 42 мс. (1,00 видеокадр)
Время предзагрузки промежутка : 500 мс.
Библиотека кодирования : LAME3.99r
Настройки программы : -m j -V 4 -q 3 -lowpass 17 -b 128
Аудио #2
Идентификатор : 2
Формат : MPEG Audio
Версия формата : Version 1
Профиль формата : Layer 3
Режим : Joint stereo
Расширение режима : MS Stereo
Идентификатор кодека : 55
Идентификатор кодека/Подсказка : MP3
Продолжительность : 22 м.
Вид битрейта : Постоянный
Битрейт : 128 Кбит/сек
Каналы : 2 канала
Частота : 44,1 КГц
Метод сжатия : С потерями
Размер потока : 20,7 Мбайт (5%)
Выравнивание : Разделение по промежуткам
Продолжительность промежутка : 42 мс. (1,00 видеокадр)
Время предзагрузки промежутка : 500 мс.
Библиотека кодирования : LAME3.99r
Настройки программы : -m j -V 4 -q 3 -lowpass 17 -b 128
Аудио #3
Идентификатор : 3
Формат : MPEG Audio
Версия формата : Version 1
Профиль формата : Layer 3
Режим : Joint stereo
Расширение режима : MS Stereo
Идентификатор кодека : 55
Идентификатор кодека/Подсказка : MP3
Продолжительность : 22 м.
Вид битрейта : Постоянный
Битрейт : 128 Кбит/сек
Каналы : 2 канала
Частота : 44,1 КГц
Метод сжатия : С потерями
Размер потока : 20,7 Мбайт (5%)
Выравнивание : Разделение по промежуткам
Продолжительность промежутка : 42 мс. (1,00 видеокадр)
Время предзагрузки промежутка : 500 мс.
Библиотека кодирования : LAME3.99r
Настройки программы : -m j -V 4 -q 3 -lowpass 17 -b 128





Цирк «Бабочка» скачать торрент


piratbit.pw



Скачать Цирк «Бабочка» через торрент http://pic.kartinco.top/images/8/pcc3u.jpg Скачать фильм Цирк «Бабочка» через торрент бесплантно в хорошем качестве Описание: В разгар Великой Депрессии, шоумен и владелец собственного небольшого цирка, гастролирует со своей труппой по разрушенной ... 10 10 2
Info! Золотая раздача, скачанное не засчитывается.
Торрент: Зарегистрирован [2015-01-17 07:47] · скачан: 80 раз
Статус: √ проверено
Размер: 468 MB
Как cкачать? Как скачать Цирк «Бабочка» через торрент | qTorrent



Последний раз редактировалось: 61RusSektor (2015-01-17 08:14), всего редактировалось 2 раз(а)

28-11-2019 20:33  

Отключить всю рекламу на сайте

17-01-2015 08:02 Цирк «Бабочка» Скачать торрент  

61RusSektor,
http://pb.wtf/topic/58128/

Цитата:

2.1 Размер обложки не должен превышать 700*700 пикселей (небольшие отклонения от нормы возможны на усмотрение модератора).
2.2 Размер обложки должен быть не меньше 200*200 пикселей.

size=14]Скриншоты не соответствуют заявленному разрешению Перезалейте
http://pb.wtf/topic/30/
http://pb.wtf/topic/122539/
ссылка
Администрация ресурса разрешает заливать скрины, постеры, картинки с этих хостингов:
fastpic
lostpic
firepic
directupload.
Запрещено заливать скриншоты на фотохостинги с оплатой за клики!

61RusSektor писал(а):

Бюджет: 31 августа 2009
Премьера в мире: 31 августа 2009

Учитывая что это ваша первая раздаче все очень даже хорошо..Все выше замечания я могу сам исправить если Вы хотите, будет вам как примером на будущее.
piratbit.pw





Последний раз редактировалось: Ворон (2015-01-17 08:25), всего редактировалось 1 раз

17-01-2015 08:13 Цирк «Бабочка» Скачать торрент  

Ворон, ну это описание было скопировано с кинопоиска и я не стал его проверять.piratbit.pw



    Дорогой пользователь! Огромная просьба, поблагодарите релизера, оцените раздачу и оставьте свои комментарий, если Вы скачали Цирк «Бабочка» через торрент бесплатно! Внесите свою лепту в развитие PiratBit!
    Комментировать посты могут только пользователи прошедшие не сложную регистрацию
    Показать сообщения:    

    Цирк «Бабочка» через торрент
    Скачать бесплатно Цирк «Бабочка»
    Цирк «Бабочка» скачать торрент
    Цирк «Бабочка» смотреть онлайн
    Cкачать фильм Цирк «Бабочка» бесплатно
    Цирк «Бабочка» скачать торрент в хорошем качестве
    Цирк «Бабочка» смотреть онлайн бесплатно в хорошем качестве


    Вы не можете начинать темы
    Вы не можете отвечать на сообщения
    Вы не можете редактировать свои сообщения
    Вы не можете удалять свои сообщения
    Вы не можете голосовать в опросах
    Вы не можете прикреплять файлы к сообщениям
    Вы можете скачивать файлы