1 сезон

3 сезон

iTunes

1

iTunes

DUB Netflix

iTunes

13

1 сезон

RePack

30

Deluxe

pack

Легкие деньги

ВАЖНО

ИГРА 18+

pack

RePack

MK11

RePack

jed

RePack

fifa19

RePack

RDR2

RePack

NEED FOR SPEED™ PAYBACK

4 сезон

9 сезон

Бесстыжие 9 сезон

Все сериалы

все сериалы на PB.wtf

RePack

FAR CRY 5

Anonymous, добрый вечер, мы не успеваем до 1 числа собрать деньги на оплату серверов, помогите нам пожалуйста в это трудное время. В качестве благодарности мы отключим Вам всю рекламу на сайте (укажите свой ник в строку Ваше имя)!

×
  
Magnet ссылка

Кадр / The Frame (Джеймин Винанс / Jamin Winans) [2014, США, фантастика, драма, WEB-DLRip, Любительский (двухголосый)[den904, DeadSno] piratbit.pw

Кадр через торрент piratbit.pw

Размер: 1.37 GB | Добавлен: 6 лет 5 мес. назад | Торрент скачан:213 раз
Скачать  

16-01-2015 02:03 Кадр Скачать торрент  

Кадр / The Frame


  • Год выпуска: 2014
  • Страна: США
  • Жанр: фантастика, драма
  • Продолжительность: 02:06:56
  • Перевод: Любительский (двухголосый)[DeadSno & den904] - перевод на русский язык [chup]
  • Субтитры: русские
  • Режиссер: Джеймин Винанс / Jamin Winans
  • В ролях:

    Tiffany Muelam (Sam), Кэлвин Бартлетт (Noah), Крис Келли (The Mechanic), Энтони Нуччио (Bama), Шона Эрп (Gloria), Джордан Долл (James), Кент Рэнделл (Emilio), Ивэн Лаи (Gaudy), Меган Хеффернан (The Secretary), Марти Линдси (The Pharmacist), Люк Севен (Alfredo), Шон Хоакин (Moi)

  • Описание:
    Двое незнакомцев проживают свои жизни в разных вселенных, но невероятным образом они сталкиваются. Алекс - преступник, работающий на опасный картель, и Сэм - фельдшер, пытающаяся спасти мир и убегающая от своего прошлого. Неожиданно для себя они становятся участниками реального шоу, наблюдая жизни друг друга по телевизору. Кто же Сценарист и Постановщик этого представления? И в чем его смысл?
  • Рейтинг:



  • Качество: WEB-DLRip
  • Формат: :MKV
  • Видео кодек: AVC
  • Аудио кодек: AC3
  • Видео: 720x384 (1.875), 1128 kbps, 23,976 fps, 0,170 bpp
  • Аудио №1: русский / 2.0 / 48 kHz / 192 kbps / 16 bit
  • Аудио №2: английский / 2.0 / 48 kHz / 192 kbps / 16 bit
  • Релиз от: GEKADOL

    Код:

    General
    Unique ID                                : 185867773891394110608901790224392317804 (0x8BD4D4C5D0670657AD63C6981B12EB6C)
    Complete name                            : I:\The.Frame.2014.WEB-DLRip.CINEMANIA.mkv
    Format                                   : Matroska
    Format version                           : Version 4 / Version 2
    File size                                : 1.37 GiB
    Duration                                 : 2h 6mn
    Overall bit rate mode                    : Variable
    Overall bit rate                         : 1 543 Kbps
    Movie name                               : Release Group CINEMANIA
    Encoded date                             : UTC 2015-01-15 16:13:19
    Writing application                      : mkvmerge v7.5.0 ('Glass Culture') 64bit built on Jan  4 2015 16:48:44
    Writing library                          : libebml v1.3.1 + libmatroska v1.4.2

    Video
    ID                                       : 1
    Format                                   : AVC
    Format/Info                              : Advanced Video Codec
    Format profile                           : High@L4.1
    Format settings, CABAC                   : Yes
    Format settings, ReFrames                : 3 frames
    Codec ID                                 : V_MPEG4/ISO/AVC
    Duration                                 : 2h 6mn
    Bit rate mode                            : Variable
    Bit rate                                 : 1 129 Kbps
    Maximum bit rate                         : 40.0 Mbps
    Width                                    : 720 pixels
    Height                                   : 384 pixels
    Display aspect ratio                     : 1.875
    Frame rate                               : 23.976 fps
    Color space                              : YUV
    Chroma subsampling                       : 4:2:0
    Bit depth                                : 8 bits
    Scan type                                : Progressive
    Bits/(Pixel*Frame)                       : 0.170
    Stream size                              : 1.00 GiB (73%)
    Title                                    : Release Group CINEMANIA
    Writing library                          : x264 core 142 r2479 dd79a61
    Encoding settings                        : cabac=1 / ref=4 / deblock=1:-1:-1 / analyse=0x3:0x133 / me=umh / subme=9 / psy=1 / psy_rd=1.00:0.15 / mixed_ref=1 / me_range=16 / chroma_me=1 / trellis=2 / 8x8dct=1 / cqm=0 / deadzone=21,11 / fast_pskip=1 / chroma_qp_offset=-3 / threads=12 / lookahead_threads=1 / sliced_threads=0 / slices=4 / nr=0 / decimate=1 / interlaced=0 / bluray_compat=0 / constrained_intra=0 / bframes=3 / b_pyramid=1 / b_adapt=2 / b_bias=0 / direct=3 / weightb=1 / open_gop=0 / weightp=0 / keyint=23 / keyint_min=1 / scenecut=40 / intra_refresh=0 / rc_lookahead=23 / rc=crf / mbtree=1 / crf=18.5 / qcomp=0.60 / qpmin=10 / qpmax=51 / qpstep=4 / vbv_maxrate=40000 / vbv_bufsize=30000 / crf_max=0.0 / nal_hrd=vbr / filler=0 / ip_ratio=1.40 / aq=1:1.00
    Default                                  : Yes
    Forced                                   : No
    Color primaries                          : BT.709-5, BT.1361, IEC 61966-2-4, SMPTE RP177
    Transfer characteristics                 : BT.709-5, BT.1361
    Matrix coefficients                      : BT.709-5, BT.1361, IEC 61966-2-4 709, SMPTE RP177

    Audio #1
    ID                                       : 2
    Format                                   : AC-3
    Format/Info                              : Audio Coding 3
    Mode extension                           : CM (complete main)
    Codec ID                                 : A_AC3
    Duration                                 : 2h 6mn
    Bit rate mode                            : Constant
    Bit rate                                 : 192 Kbps
    Channel(s)                               : 2 channels
    Channel positions                        : Front: L R
    Sampling rate                            : 48.0 KHz
    Bit depth                                : 16 bits
    Compression mode                         : Lossy
    Stream size                              : 174 MiB (12%)
    Title                                    : Влад и Снежинка
    Language                                 : Russian
    Default                                  : Yes
    Forced                                   : Yes

    Audio #2
    ID                                       : 3
    Format                                   : AC-3
    Format/Info                              : Audio Coding 3
    Mode extension                           : CM (complete main)
    Codec ID                                 : A_AC3
    Duration                                 : 2h 6mn
    Bit rate mode                            : Constant
    Bit rate                                 : 192 Kbps
    Channel(s)                               : 2 channels
    Channel positions                        : Front: L R
    Sampling rate                            : 48.0 KHz
    Bit depth                                : 16 bits
    Compression mode                         : Lossy
    Stream size                              : 174 MiB (12%)
    Language                                 : English
    Default                                  : No
    Forced                                   : No

    Text
    ID                                       : 4
    Format                                   : UTF-8
    Codec ID                                 : S_TEXT/UTF8
    Codec ID/Info                            : UTF-8 Plain Text
    Language                                 : Russian
    Default                                  : Yes
    Forced                                   : Yes


    Скриншоты:



    piratbit.pw



  • Скачать Кадр через торрент http://i63.fastpic.ru/big/2015/0116/c7/190a51f9221e15c58f3d36d7665bc1c7.jpg Скачать фильм Кадр через торрент бесплантно в хорошем качестве Описание: Двое незнакомцев проживают свои жизни в разных вселенных, но невероятным образом они сталкиваются. Алекс - преступник, работающий ... 9.3 10 4
    Торрент: Зарегистрирован [2015-01-16 02:03] · скачан: 213 раз
    Статус: T временная
    Размер: 1.37 GB
    Как cкачать? Как скачать Кадр через торрент | UTorrent

    % Раздел Тема Автор DL S | L
    Документальные фильмы и телепередачи [ 559 MB ] Как это связано? От мечей до беспилотников / The Link. From Swords to Spyplanes [2012 Документальный / познавательный TVRip ] sheker187 Скачать
    1 | 0

    28-11-2019 20:33  

    Отключить всю рекламу на сайте


    22-01-2015 21:06 Кадр Скачать торрент  

    Отпишите кто смотрел как фильм? По трейлеру нифига не понятно. Рейтинга мало... ААААааа!!!!!!!!!!piratbit.pw



      Дорогой пользователь! Огромная просьба, поблагодарите релизера, оцените раздачу и оставьте свои комментарий, если Вы скачали Кадр через торрент бесплатно! Внесите свою лепту в развитие PiratBit!
      Комментировать посты могут только пользователи прошедшие не сложную регистрацию
      Показать сообщения:    

      Кадр через торрент
      Скачать бесплатно Кадр
      Кадр скачать торрент
      Кадр смотреть онлайн
      Cкачать фильм Кадр бесплатно
      Кадр скачать торрент в хорошем качестве
      Кадр смотреть онлайн бесплатно в хорошем качестве


      Вы не можете начинать темы
      Вы не можете отвечать на сообщения
      Вы не можете редактировать свои сообщения
      Вы не можете удалять свои сообщения
      Вы не можете голосовать в опросах
      Вы не можете прикреплять файлы к сообщениям
      Вы можете скачивать файлы