1 сезон

1 сезон

iTunes

1

КиноПоиск HD

Кинопоиск HD

iTunes

13

1 сезон

RePack

30

Ultimate

ВАЖНО

ИГРА 18+

pack

RePack

MK11
pack

Легкие деньги

RePack

jed

RePack

fifa19

RePack

RDR2

RePack

NEED FOR SPEED™ PAYBACK

4 сезон

9 сезон

Бесстыжие 9 сезон

Все сериалы

все сериалы на PB.wtf

RePack

FAR CRY 5
  
Magnet ссылка

Джон Уик / John Wick (Чад Стахелски , Дэвид Лейтч ) [2014, боевик, триллер, WEB-DLRip, Авторский (одноголосый)- Дмитрий Есарев] piratbit.pw

Джон Уик через торрент piratbit.pw

Размер: 1.37 GB | Добавлен: 6 лет 3 мес. назад | Торрент скачан:305 раз
Скачать  

14-01-2015 08:30 Джон Уик Скачать торрент  


Джон Уик / John Wick

«Его лучше не трогать»

Год выпуска:2014
Страна:США, Канада, Китай
Жанр:боевик, триллер
Продолжительность: 01:41:12
Перевод:Авторский (одноголосый) - Дмитрий Есарев
Режиссер:Чад Стахелски , Дэвид Лейтч
В ролях:

Киану Ривз (John Wick), Микаэл Нюквист (Viggo Tarasov), Элфи Оуэн-Аллен (Iosef Tarasov), Уиллем Дефо (Marcus), Дин Уинтерс (Avi), Эдрианн Палики (Ms. Perkins), Омер Барнеа (Gregori), Тоби Мур (Victor), Дэниэл Бернхард (Kirill), Бриджет Мойнэхэн (Helen), Джон Легуизамо (Aureilo), Иэн МакШейн (Winston)
  • Описание:
    Джон Уик - бывший наемный убийца - ведет размеренную жизнь, когда преступник крадет его любимый Mustang 1969 года и попутно убивает собаку Дейзи, единственное живое напоминание об умершей жене. Жажда мести пробуждает в нем, казалось, утерянную хватку...


    Качество: WEB-DLRip
    Формат:AVI
    Видео кодек: XviD
    Аудио кодек:AC3
    Видео: XviD, 720x304 (2.35:1), 1539 kbps, 23,976 fps, 0,293 bpp
    Аудио: AC3 / 5.1 / 48 kHz / 384 kbps / 16 bit

    Код:

    General
    Complete name                            : D:\Торенты\Djon.Uik.2014.P1.WEB-DLRip.1400MB.avi
    Format                                   : AVI
    Format/Info                              : Audio Video Interleave
    File size                                : 1.37 GiB
    Duration                                 : 1h 41mn
    Overall bit rate                         : 1 933 Kbps
    Writing application                      : VirtualDubMod 1.5.10.2 (build 2540/release)
    Writing library                          : VirtualDubMod build 2540/release

    Video
    ID                                       : 0
    Format                                   : MPEG-4 Visual
    Format profile                           : Advanced Simple@L5
    Format settings, BVOP                    : 2
    Format settings, QPel                    : No
    Format settings, GMC                     : No warppoints
    Format settings, Matrix                  : Default (MPEG)
    Codec ID                                 : XVID
    Codec ID/Hint                            : XviD
    Duration                                 : 1h 41mn
    Bit rate                                 : 1 540 Kbps
    Width                                    : 720 pixels
    Height                                   : 304 pixels
    Display aspect ratio                     : 2.35:1
    Frame rate                               : 23.976 fps
    Color space                              : YUV
    Chroma subsampling                       : 4:2:0
    Bit depth                                : 8 bits
    Scan type                                : Progressive
    Compression mode                         : Lossy
    Bits/(Pixel*Frame)                       : 0.293
    Stream size                              : 1.09 GiB (80%)
    Writing library                          : XviD 1.2.1 (UTC 2008-12-04)

    Audio
    ID                                       : 1
    Format                                   : AC-3
    Format/Info                              : Audio Coding 3
    Mode extension                           : CM (complete main)
    Codec ID                                 : 2000
    Duration                                 : 1h 41mn
    Bit rate mode                            : Constant
    Bit rate                                 : 384 Kbps
    Channel(s)                               : 6 channels
    Channel positions                        : Front: L C R, Side: L R, LFE
    Sampling rate                            : 48.0 KHz
    Bit depth                                : 16 bits
    Compression mode                         : Lossy
    Stream size                              : 278 MiB (20%)
    Alignment                                : Split accross interleaves
    Interleave, duration                     : 42 ms (1.00 video frame)
    Interleave, preload duration             : 500 ms


    Скриншоты:

    Каталог Новинок (Фильмы-трейлеры, Игры, Сериалы, Мультфильмы)

    © Оформление by Ворон
    piratbit.pw



  • Скачать Джон Уик через торрент https://pic.kartinco.top/images/6/ordi9.jpg Скачать фильм Джон Уик через торрент бесплантно в хорошем качестве Описание:Джон Уик - бывший наемный убийца - ведет размеренную жизнь, когда преступник крадет его любимый Mustang 1969 года и попутно ... 10 10 8
    Info! Золотая раздача, скачанное не засчитывается.
    Торрент: Зарегистрирован [2015-01-14 08:30] · скачан: 305 раз
    Статус: √ проверено
    Размер: 1.37 GB
    Как cкачать? Как скачать Джон Уик через торрент | UTorrent

    28-11-2019 20:33  

    Отключить всю рекламу на сайте

    14-01-2015 09:03 Джон Уик Скачать торрент  

    фильм хороший, динамичный, но , опять плохие русские , это похоже на хорошую работу американской пропаганды в это непростое времяpiratbit.pw



    14-01-2015 09:05 Джон Уик Скачать торрент  

    так точно, в "Игра в имитацию" вообще честь за победу в Великой Отечественной войне отдали английскому гомосекуpiratbit.pw



    14-01-2015 10:12 Джон Уик Скачать торрент  

    Глянул сэмпл качество видео на высоте, озвучка вполне приличная. Буду качать ради собаки которую увидел в сэмпле))) На счет русских или все же россиян? Да на*рать что там показывают, их изображают так, почти всегда. И тот у кого есть хоть пару извилин понимает, что это всего-навсего фильм.piratbit.pw



    14-01-2015 10:17 Джон Уик Скачать торрент  

    Сцука, прочитал описание - качать перехотел. piratbit.pw



    14-01-2015 13:28 Джон Уик Скачать торрент  

    вот теперь можно глянуть! а то эти любители из Paradox переводить совсем не могут)piratbit.pw



    14-01-2015 16:06 Джон Уик Скачать торрент  

    sadsad48 писал(а):

    фильм хороший, динамичный, но , опять плохие русские , это похоже на хорошую работу американской пропаганды в это непростое время

    Где ты там увидел пропаганду? америкосы были там и это факт..да и это кино художественное не забываем, а не документальный фильм.
    Фильм нормальный, концовка жесть но другой там и не должно быть, учитывая ситуацию.piratbit.pw



    16-01-2015 14:28 Джон Уик Скачать торрент  

    Не ожидал я что в таком дерьме Ривз снимется.Ну ладно бы Стэтхем-самое его.Это вообще что такое было-экранизированная компьютерная стрелялка?Горы трупов,ни драматургии,не смысла-ничего.Просто ходит чувак и весь фильм валит всех целыми кучами.Пытался подсчитать-сбился на третьем десятке.Да от такого количества трупов местная Влacть пришла бы в ужас и подняла на ноги Национальную Гвардию,как минимум rofl :shoot2:piratbit.pw



    11-02-2017 17:06 Джон Уик Скачать торрент  

    10oN писал(а):

    , прочитал описание - качать перехотел.

    Ну и зря! Фильм хороший! Вы знаете хоть одного русского с именем Виго и Йозеф??? piratbit.pw



      Дорогой пользователь! Огромная просьба, поблагодарите релизера, оцените раздачу и оставьте свои комментарий, если Вы скачали Джон Уик через торрент бесплатно! Внесите свою лепту в развитие PiratBit!
      Комментировать посты могут только пользователи прошедшие не сложную регистрацию
      Показать сообщения:    

      Джон Уик через торрент
      Скачать бесплатно Джон Уик
      Джон Уик скачать торрент
      Джон Уик смотреть онлайн
      Cкачать фильм Джон Уик бесплатно
      Джон Уик скачать торрент в хорошем качестве
      Джон Уик смотреть онлайн бесплатно в хорошем качестве


      Вы не можете начинать темы
      Вы не можете отвечать на сообщения
      Вы не можете редактировать свои сообщения
      Вы не можете удалять свои сообщения
      Вы не можете голосовать в опросах
      Вы не можете прикреплять файлы к сообщениям
      Вы можете скачивать файлы