Ссылка на приватное зеркало всего за 1$. Внимание количество ограничено!!!

iTunes

iTunes

iTunes

1

iTunes

iTunes

iTunes

iTunes

iTunes

30
pack

$ от Little Big

ВАЖНО

!!Акция!!

Alien_RageХит недели

RePack

Resident Evil 21

ИГРА 18+

pack

RePack

jed

!!Акция!!

Alien_Rage

RePack

fifa19

RePack

Assassins Creed: Odyssey

RePack

NEED FOR SPEED™ PAYBACK

4 сезон

9 сезон

Бесстыжие 9 сезон

Все сериалы

все сериалы на PB.wtf

RePack

FAR CRY 5
  

Горько! 2 (Жора Крыжовников) [2014 г., комедия, BDRip, Лицензия] piratbit.pw

Горько! 2 через торрент piratbit.pw

Размер: 2.04 GB | Добавлен: 5 лет 7 мес. назад | Торрент скачан:1842 раза
Скачать  

14-12-2014 15:20 Горько! 2 Скачать торрент  

Горько! 2
Год выпуска: 2014
Страна: Россия / Базелевс Продакшн , Кинокомпания «Lunapark», Таббак
Жанр: комедия
Продолжительность: 01:36:32
Тип релиза: Лицензия

Режиссер: Жора Крыжовников

В ролях: Ян Цапник, Юлия Александрова, Егор Корешков, Елена Валюшкина, Василий Кортуков, Юлия Стадник, Сергей Лавыгин, Александр Робак, Александр Паль, Сергей Светлаков

Описание: В надежде сорвать большой куш Наташин отчим идет на финансовую авантюру, чем подставляет своих партнеров по бизнесу. Без лишних слов те устраивают на него покушение. Вся семья скорбит по Борису Ивановичу… а он в гробу все это видел. Ему бы три дня пролежать и похороны пережить, а там родные откопают и можно спать спокойно. И все идет по плану уцелевшего отчима, пока проститься с ним не приезжает боевой товарищ. Рубаха-парень Витька Каравай мгновенно покоряет всю семью, перетягивая общее внимание на себя. Задетый за живое, покойник заставляет родных устроить роскошные поминки с участием Светлакова…

Качество: BDRip (Рип с Blu-ray 1080p AVC DTS-HD 5.1)
Формат: AVI
Видео кодек: XviD
Аудио кодек: AC3
Видео: 720x384 (1.88:1), 24.000 fps, XviD build 50 ~2565 kbps avg, 0.39 bit/pixel
Аудио: 48 kHz, AC3 Dolby Digital, 3/2 (L,C,R,l,r) + LFE ch, ~448 kbps

скриншот   скриншот   скриншот   скриншот   скриншот   скриншот   скриншот   скриншот   скриншот   скриншот  

Общее
Полное имя : F:\кино\Горько!2.BDRip.avi
Формат : AVI
Формат/Информация : Audio Video Interleave
Профиль формата : OpenDML
Размер файла : 2,04 Гбайт
Продолжительность : 1 ч. 36 м.
Общий поток : 3020 Кбит/сек
Программа кодирования : VirtualDubMod 1.5.10.3 | www.virtualdub-fr.org || (build 2550/release)
Библиотека кодирования : VirtualDubMod build 2550/release

Видео
Идентификатор : 0
Формат : MPEG-4 Visual
Профиль формата : Advanced Simple@L5
Параметр BVOP формата : 2
Параметр QPel формата : Нет
Параметр GMC формата : Без точки перехода
Параметр матрицы формата : Default (H.263)
Идентификатор кодека : XVID
Идентификатор кодека/Подсказка : XviD
Продолжительность : 1 ч. 36 м.
Битрейт : 2560 Кбит/сек
Ширина : 720 пикселей
Высота : 384 пикселя
Соотношение сторон : 1,85:1
Частота кадров : 24,000 кадра/сек
Цветовое пространство : YUV
Субдискретизация насыщенности : 4:2:0
Битовая глубина : 8 бит
Тип развёртки : Прогрессивная
Метод сжатия : С потерями
Бит/(Пиксели*Кадры) : 0.386
Размер потока : 1,73 Гбайт (85%)
Библиотека кодирования : XviD 1.2.1 (UTC 2008-12-04)

Аудио
Идентификатор : 1
Формат : AC-3
Формат/Информация : Audio Coding 3
Расширение режима : CM (complete main)
Параметр Endianness формата : Big
Идентификатор кодека : 2000
Продолжительность : 1 ч. 36 м.
Вид битрейта : Постоянный
Битрейт : 448 Кбит/сек
Каналы : 6 каналов
Расположение каналов : Front: L C R, Side: L R, LFE
Частота : 48,0 КГц
Битовая глубина : 16 бит
Метод сжатия : С потерями
Размер потока : 309 Мбайт (15%)
Выравнивание : Разделение по промежуткам
Продолжительность промежутка : 42 мс. (1,00 видеокадр)
Время предзагрузки промежутка : 500 мс.

piratbit.pw



Скачать Горько! 2 через торрент http://pic.kartinco.top/images/8/rqnww.jpg Скачать фильм Горько! 2 через торрент бесплантно в хорошем качестве Описание: В надежде сорвать большой куш Наташин отчим идет на финансовую авантюру, чем подставляет своих партнеров по бизнесу. Без лишних ... 8 10 41
Info! Серебряная раздача, засчитывается только 50% скачанного.
Торрент: Зарегистрирован [2014-12-14 15:20] · скачан: 1 842 раз
Статус: √ проверено
Размер: 2.04 GB
Как cкачать? Как скачать Горько! 2 через торрент | qTorrent

% Раздел Тема Автор DL S | L
Наши новые фильмы 2014 [ 1.46 GB ] Горько! 2 [2014 Россия WEB-DLRip-AVC] sokol_ok Скачать
1 | 0
Наши фильмы (Blu-ray, BD-Remux, HDDVD) [ 11.99 GB ] Горько! 2 [2014 BDRemux / Ворон Скачать
1 | 0
Наши новые фильмы 2014 [ 1.37 GB ] Горько! 2 [2014 WEB-DLRip] Ворон Скачать
2 | 0
Наши фильмы (DVD фильмы) [ 4.69 GB ] Горько! 2 [2014 DVD9] R5 voovaz Скачать
1 | 0

28-11-2019 20:33  

Отключить всю рекламу на сайте

14-12-2014 18:30 Горько! 2 Скачать торрент  

no no no no nopiratbit.pw



15-12-2014 19:16 Горько! 2 Скачать торрент  

Горький :) ужассно горький фильм :))piratbit.pw



02-01-2015 06:45 Горько! 2 Скачать торрент  

Жуткая муть! Насколько смешным был первый фильм, настолько тупым оказался второй. Хуже ничего не видел, еле осилил 40 минут, все думал: когда же станет даже не смешно, а хотя бы не тупо и скучно? Отстой :(((piratbit.pw



05-01-2015 00:53 Горько! 2 Скачать торрент  

Жалко средств и времени потраченные в пустую для съемки этой эакуляцииpiratbit.pw



    Дорогой пользователь! Огромная просьба, поблагодарите релизера, оцените раздачу и оставьте свои комментарий, если Вы скачали Горько! 2 через торрент бесплатно! Внесите свою лепту в развитие PiratBit!
    Комментировать посты могут только пользователи прошедшие не сложную регистрацию
    Показать сообщения:    

    Горько! 2 через торрент
    Скачать бесплатно Горько! 2
    Горько! 2 скачать торрент
    Горько! 2 смотреть онлайн
    Cкачать фильм Горько! 2 бесплатно
    Горько! 2 скачать торрент в хорошем качестве
    Горько! 2 смотреть онлайн бесплатно в хорошем качестве


    Вы не можете начинать темы
    Вы не можете отвечать на сообщения
    Вы не можете редактировать свои сообщения
    Вы не можете удалять свои сообщения
    Вы не можете голосовать в опросах
    Вы не можете прикреплять файлы к сообщениям
    Вы можете скачивать файлы