1 сезон

1 сезон

iTunes

1

КиноПоиск HD

Кинопоиск HD

iTunes

13

1 сезон

RePack

30

Новинка

ВАЖНО

ИГРА 18+

pack

RePack

MK11
pack

Легкие деньги

RePack

jed

RePack

fifa19

RePack

RDR2

RePack

NEED FOR SPEED™ PAYBACK

4 сезон

9 сезон

Бесстыжие 9 сезон

Все сериалы

все сериалы на PB.wtf

RePack

FAR CRY 5
  
Magnet ссылка

Белая птица в метели / White Bird in a Blizzard (Грегг Араки ) [2014, триллер, драма, детектив, BDRip 720p, А.Матвеев] piratbit.pw

Белая птица в метели через торрент piratbit.pw

Размер: 3.13 GB | Добавлен: 6 лет 3 мес. назад | Торрент скачан:104 раза
Скачать  

13-01-2015 13:32 Белая птица в метели Скачать торрент  

Белая птица в метели / White Bird in a Blizzard
«I was 17 when my mother disappeared...»


Год выпуска: 2014
Страна: США, Франция
Жанр: триллер, драма, детектив
Продолжительность: 01:31:17
Перевод: Авторский (одноголосый)
Субтитры: английские (full), английские (SDH)
Режиссер: Грегг Араки
В ролях: Шейлин Вудли , Ева Грин , Кристофер Мелони , Шайло Фернандес , Анджела Бассетт , Габури Сидибе , Ава Акрес , Томас Джейн , Марк Инделикато , Дейл Дикки , Шерил Ли , Майкл Патрик МакГилл
Описание::
Когда Кэт Коннорс было 17, её мать исчезла... Вчера она была - сегодня её нет. Однако, не то чтобы Кэт это тревожило - пубертат во всей красе, мужчины кругом... Но таинственное исчезновение просто так не отпустит причастных и с каждой минутой будет затягивать в зыбучий песок всё сильнее.

R - Лицам до 17 лет обязательно присутствие взрослого
Качество: BDRip 720p
Контейнер (Расширение): MKV
Видео кодек: AVC
Аудио кодек: AC3
Видео: 1280x544 (2.35:1), 3531 Кбит/сек, 23,976 кадр/сек, 0,212 Бит/[Пиксели*Кадры]
Аудио №1: русский / AC3 / 5.1 / 48 kHz / 640 kbps / 16 bit |Авторский (одноголосый), А.Матвеев [Doctor Joker]|
Аудио №2: английский / AC3 / 5.1 / 48 kHz / 640 kbps / 16 bit
Навигация по главам(Чаптеры): естьВнимание! В переводе присутствует ненормативная лексика!Автор рипа: Сообщество:

Код:

Format                                   : Matroska
Format version                           : Version 2
File size                                : 3.13 GiB
Duration                                 : 1h 31mn
Overall bit rate                         : 4 909 Kbps
Movie name                               : Belaja ptica v meteli.(2014).BDRip.720p.[denis100]
Encoded date                             : UTC 2015-01-13 12:46:59
Writing application                      : mkvmerge v5.8.0 ('No Sleep / Pillow') built on Sep  2 2012 15:37:04
Writing library                          : libebml v1.2.3 + libmatroska v1.3.0

Video
ID                                       : 1
Format                                   : AVC
Format/Info                              : Advanced Video Codec
Format profile                           : High@L4.1
Format settings, CABAC                   : Yes
Format settings, ReFrames                : 11 frames
Codec ID                                 : V_MPEG4/ISO/AVC
Duration                                 : 1h 31mn
Bit rate                                 : 3 532 Kbps
Width                                    : 1 280 pixels
Height                                   : 544 pixels
Display aspect ratio                     : 2.35:1
Frame rate                               : 23.976 fps
Color space                              : YUV
Chroma subsampling                       : 4:2:0
Bit depth                                : 8 bits
Scan type                                : Progressive
Bits/(Pixel*Frame)                       : 0.212
Stream size                              : 2.25 GiB (72%)
Title                                    : Belaja ptica v meteli.(2014).BDRip.720p.[denis100]
Writing library                          : x264 core 142 r2491 24e4fed
Encoding settings                        : cabac=1 / ref=11 / deblock=1:-3:-3 / analyse=0x3:0x133 / me=umh / subme=11 / psy=1 / psy_rd=1.00:0.15 / mixed_ref=1 / me_range=32 / chroma_me=1 / trellis=2 / 8x8dct=1 / cqm=0 / deadzone=21,11 / fast_pskip=0 / chroma_qp_offset=-3 / threads=6 / lookahead_threads=1 / sliced_threads=0 / nr=0 / decimate=1 / interlaced=0 / bluray_compat=0 / constrained_intra=0 / bframes=12 / b_pyramid=2 / b_adapt=2 / b_bias=0 / direct=3 / weightb=1 / open_gop=0 / weightp=2 / keyint=240 / keyint_min=23 / scenecut=40 / intra_refresh=0 / rc=crf / mbtree=0 / crf=18.0 / qcomp=0.60 / qpmin=0 / qpmax=69 / qpstep=4 / ip_ratio=1.40 / pb_ratio=1.30 / aq=1:0.80
Language                                 : English
Default                                  : Yes
Forced                                   : No

Audio #1
ID                                       : 2
Format                                   : AC-3
Format/Info                              : Audio Coding 3
Mode extension                           : CM (complete main)
Codec ID                                 : A_AC3
Duration                                 : 1h 31mn
Bit rate mode                            : Constant
Bit rate                                 : 640 Kbps
Channel(s)                               : 6 channels
Channel positions                        : Front: L C R, Side: L R, LFE
Sampling rate                            : 48.0 KHz
Bit depth                                : 16 bits
Compression mode                         : Lossy
Stream size                              : 418 MiB (13%)
Title                                    : Авторский, А.Матвеев [Doctor Joker]
Language                                 : Russian
Default                                  : Yes
Forced                                   : No

Audio #2
ID                                       : 3
Format                                   : AC-3
Format/Info                              : Audio Coding 3
Mode extension                           : CM (complete main)
Codec ID                                 : A_AC3
Duration                                 : 1h 31mn
Bit rate mode                            : Constant
Bit rate                                 : 640 Kbps
Channel(s)                               : 6 channels
Channel positions                        : Front: L C R, Side: L R, LFE
Sampling rate                            : 48.0 KHz
Bit depth                                : 16 bits
Compression mode                         : Lossy
Stream size                              : 418 MiB (13%)
Title                                    : English
Language                                 : English
Default                                  : No
Forced                                   : No

Text #1
ID                                       : 4
Format                                   : UTF-8
Codec ID                                 : S_TEXT/UTF8
Codec ID/Info                            : UTF-8 Plain Text
Title                                    : full
Language                                 : English
Default                                  : No
Forced                                   : No

Text #2
ID                                       : 5
Format                                   : UTF-8
Codec ID                                 : S_TEXT/UTF8
Codec ID/Info                            : UTF-8 Plain Text
Title                                    : SDH
Language                                 : English
Default                                  : No
Forced                                   : No

Menu
00:00:00.000                             : en:Chapter 01
00:08:13.409                             : en:Chapter 02
00:13:16.670                             : en:Chapter 03
00:20:27.059                             : en:Chapter 04
00:31:50.992                             : en:Chapter 05
00:42:45.896                             : en:Chapter 06
00:48:44.129                             : en:Chapter 07
00:59:53.881                             : en:Chapter 08
01:06:55.302                             : en:Chapter 09
01:17:00.073                             : en:Chapter 10
01:22:24.272                             : en:Chapter 11
01:28:51.909                             : en:Chapter 12

x264 [info]: frame I:847 Avg QP:15.37 size:125948
x264 [info]: frame P:23259 Avg QP:16.64 size: 40855
x264 [info]: frame B:107218 Avg QP:18.81 size: 13303
piratbit.pw



Скачать Белая птица в метели через торрент http://i63.fastpic.ru/big/2015/0113/e4/749025743dd3e10d71605c165db330e4.png Скачать фильм Белая птица в метели через торрент бесплантно в хорошем качестве Описание::Когда Кэт Коннорс было 17, её мать исчезла... Вчера она была - сегодня её нет. Однако, не то чтобы Кэт это тревожило - пубертат ... 9.8 10 4
Торрент: Зарегистрирован [2015-01-13 13:32] · скачан: 104 раз
Статус: √ проверено
Размер: 3.13 GB
Как cкачать? Как скачать Белая птица в метели через торрент | UTorrent

% Раздел Тема Автор DL S | L
Фильмы с авторской озвучкой [ 10.22 GB ] Белая птица в метели / White Bird in a Blizzard [2014 BDRip 1080p Авторский |Матвеев|] кэп Скачать
1 | 0
Фильмы с авторской озвучкой [ 2.72 GB ] Белая птица в метели / White Bird in a Blizzard [2014 WEB-DL 720p Авторский Ворон Скачать
1 | 0
Фильмы с авторской озвучкой [ 1.36 GB ] Белая птица в метели / White Bird in a Blizzard [2014 WEB-DLRip Авторский [Алексей Матвеев] GEKADOL Скачать
1 | 0

28-11-2019 20:33  

Отключить всю рекламу на сайте

03-02-2015 14:41 Белая птица в метели Скачать торрент  

Дайте Скоростиpiratbit.pw



    Дорогой пользователь! Огромная просьба, поблагодарите релизера, оцените раздачу и оставьте свои комментарий, если Вы скачали Белая птица в метели через торрент бесплатно! Внесите свою лепту в развитие PiratBit!
    Комментировать посты могут только пользователи прошедшие не сложную регистрацию
    Показать сообщения:    

    Белая птица в метели через торрент
    Скачать бесплатно Белая птица в метели
    Белая птица в метели скачать торрент
    Белая птица в метели смотреть онлайн
    Cкачать фильм Белая птица в метели бесплатно
    Белая птица в метели скачать торрент в хорошем качестве
    Белая птица в метели смотреть онлайн бесплатно в хорошем качестве


    Вы не можете начинать темы
    Вы не можете отвечать на сообщения
    Вы не можете редактировать свои сообщения
    Вы не можете удалять свои сообщения
    Вы не можете голосовать в опросах
    Вы не можете прикреплять файлы к сообщениям
    Вы можете скачивать файлы